Панель пользователя
Регистрация

Воспользуйтесь социальными сетями для входа на https://freerutor.com

vk odnoklassniki facebook mailru yandex google
Рекомендуем
Document
Счетчик
Голосуй за нас
Популярное
загрузка...
Товары интернет магазина

Охота на дикарей (2016) BDRip 720p | Лицензия

Охота на дикарей (2016) BDRip 720p | Лицензия
Участники торрент обмена
Сидов Пиров Скачали
6 0 1942
Характеристика
Размер Файлы
5.30 GB
Релиз группа
Поделиться раздачей
Фильмы (720,1080,Blu-Ray)
Наименование: Охота на дикарей
Оригинальное наименование: Hunt for the Wilderpeople
Произведено: Новая Зеландия
Категория: драма, комедия, приключения
Режиссер постановщик: Тайка Вайтити
В главных ролях: Сэм Нил, Джулиан Деннисон, Рима Те Вьята, Рэйчел Хаус, Оскар Кайтли, Стэн Уокер, Майк Миноуг, Коэн Холлоуэй, Риз Дэрби
Краткое описание: Рикки Бэйкер - упитанный городской хулиган. Сотрудница социальной службы Пола отвозит подростка в сельскую местность, где живёт единственная готовая принять его семья - Белла и её нелюдимый муж Гек. Когда Белла умирает и социальная защита собирается забрать Рикки, тот убегает в леса. Гек отправляется за ним. Сумасбродная Пола убеждена, что странный Гек слетел с катушек из-за смерти жены и похитил подростка. Она развязывает общенациональную охоту на мальчика и его «совратителя».
  • Видео данные: MPEG-4 AVC, 5366 Кбит/с, 1280x536
    Аудио данные: Русский (AC3, 6 ch, 640 Кбит/с), английский (DTS, 6 ch, 1510 Кбит/с)
    Перевод: Профессиональный многоголосый (Лицензия)
    Субтитры: Русские, английские
    Продолжительность: 01:40:59
  • Охота на дикарей (2016) BDRip 720p | Лицензия Охота на дикарей (2016) BDRip 720p | Лицензия Охота на дикарей (2016) BDRip 720p | Лицензия
  • General
    Unique ID : 236951056418564955982875634660158830457 (0xB2431D0DC033948AAF1FB67CA4417779)
    Complete name : F:VideoHunt.for.the.Wilderpeople.2016.BDRip.720p.ExKinoRay.mkv
    Format : Matroska
    Format version : Version 4 / Version 2
    File size : 5.30 GiB
    Duration : 1 h 40 min
    Overall bit rate : 7 517 kb/s
    Movie name : ***селезень***
    Encoded date : UTC 2017-03-26 01:30:53
    Writing application : mkvmerge v10.0.0 ('To Drown In You') 64bit
    Writing library : libebml v1.3.4 + libmatroska v1.4.5
    Cover : Yes
    Attachments : cover.jpg

    Video
    ID : 1
    Format : AVC
    Format/Info : Advanced Video Codec
    Format profile : High@L4.1
    Format settings, CABAC : Yes
    Format settings, ReFrames : 12 frames
    Codec ID : V_MPEG4/ISO/AVC
    Duration : 1 h 40 min
    Bit rate : 5 366 kb/s
    Width : 1 280 pixels
    Height : 536 pixels
    Display aspect ratio : 2.40:1
    Frame rate mode : Constant
    Frame rate : 24.000 FPS
    Color space : YUV
    Chroma subsampling : 4:2:0
    Bit depth : 8 bits
    Scan type : Progressive
    Bits/(Pixel*Frame) : 0.326
    Stream size : 3.79 GiB (71%)
    Writing library : x264 core 148 r2721 72d53ab
    Encoding settings : cabac=1 / ref=12 / deblock=1:-3:-3 / analyse=0x3:0x133 / me=umh / subme=10 / psy=1 / psy_rd=1.15:0.00 / mixed_ref=1 / me_range=32 / chroma_me=1 / trellis=2 / 8x8dct=1 / cqm=0 / deadzone=21,11 / fast_pskip=0 / chroma_qp_offset=-2 / threads=6 / lookahead_threads=1 / sliced_threads=0 / nr=0 / decimate=0 / interlaced=0 / bluray_compat=0 / constrained_intra=0 / bframes=10 / b_pyramid=2 / b_adapt=2 / b_bias=0 / direct=3 / weightb=1 / open_gop=0 / weightp=2 / keyint=250 / keyint_min=23 / scenecut=40 / intra_refresh=0 / rc_lookahead=60 / rc=crf / mbtree=0 / crf=16.8 / qcomp=0.65 / qpmin=0 / qpmax=69 / qpstep=4 / vbv_maxrate=62500 / vbv_bufsize=78125 / crf_max=0.0 / nal_hrd=none / filler=0 / ip_ratio=1.30 / pb_ratio=1.20 / aq=3:0.75
    Language : English
    Default : Yes
    Forced : No

    Audio #1
    ID : 2
    Format : AC-3
    Format/Info : Audio Coding 3
    Mode extension : CM (complete main)
    Format settings, Endianness : Big
    Codec ID : A_AC3
    Duration : 1 h 40 min
    Bit rate mode : Constant
    Bit rate : 640 kb/s
    Channel(s) : 6 channels
    Channel positions : Front: L C R, Side: L R, LFE
    Sampling rate : 48.0 kHz
    Frame rate : 31.250 FPS (1536 spf)
    Bit depth : 16 bits
    Compression mode : Lossy
    Stream size : 462 MiB (9%)
    Title : MVO [License]
    Language : Russian
    Default : Yes
    Forced : No

    Audio #2
    ID : 3
    Format : DTS
    Format/Info : Digital Theater Systems
    Mode : 16
    Format settings, Endianness : Big
    Codec ID : A_DTS
    Duration : 1 h 40 min
    Bit rate mode : Constant
    Bit rate : 1 509 kb/s
    Channel(s) : 6 channels
    Channel positions : Front: L C R, Side: L R, LFE
    Sampling rate : 48.0 kHz
    Frame rate : 93.750 FPS (512 spf)
    Bit depth : 24 bits
    Compression mode : Lossy
    Stream size : 1.06 GiB (20%)
    Title : Original
    Language : English
    Default : No
    Forced : No

    Text #1
    ID : 4
    Format : UTF-8
    Codec ID : S_TEXT/UTF8
    Codec ID/Info : UTF-8 Plain Text
    Duration : 1 h 35 min
    Bit rate : 122 b/s
    Count of elements : 1506
    Stream size : 85.8 KiB (0%)
    Title : Full
    Language : Russian
    Default : No
    Forced : No

    Text #2
    ID : 5
    Format : UTF-8
    Codec ID : S_TEXT/UTF8
    Codec ID/Info : UTF-8 Plain Text
    Duration : 1 h 37 min
    Bit rate : 56 b/s
    Count of elements : 1192
    Stream size : 40.2 KiB (0%)
    Title : Full
    Language : English
    Default : No
    Forced : No

    Text #3
    ID : 6
    Format : UTF-8
    Codec ID : S_TEXT/UTF8
    Codec ID/Info : UTF-8 Plain Text
    Duration : 1 h 39 min
    Bit rate : 66 b/s
    Count of elements : 1555
    Stream size : 48.2 KiB (0%)
    Title : SDH
    Language : English
    Default : No
    Forced : No

    Menu
    00:00:00.000 : en:00:00:00.000
    00:06:04.792 : en:00:06:04.792
    00:16:58.917 : en:00:16:58.917
    00:25:29.375 : en:00:25:29.375
    00:36:20.042 : en:00:36:20.042
    00:43:50.958 : en:00:43:50.958
    00:51:02.833 : en:00:51:02.833
    00:59:52.167 : en:00:59:52.167
    01:08:52.208 : en:01:08:52.208
    01:18:39.583 : en:01:18:39.583
    01:29:48.417 : en:01:29:48.417
    01:36:13.625 : en:01:36:13.625
8.5 из 10
голосов: 4
/10
/10
Раздачу отредактировал: VlaDyka - 26-03-2017, 05:17
По причине: (Замена на Лицензию)
foster720p 26-03-2017, 05:15

RIGEL | 3-10-2016, 01:09 | Статус: Оффлайн

Спасибо. Не плохой фильм.
Информация
Посетители, находящиеся в группе Гости, не могут оставлять комментарии к данной публикации.