Панель пользователя
Регистрация

Воспользуйтесь социальными сетями для входа на https://freerutor.com

vk odnoklassniki facebook mailru yandex google
Рекомендуем
Document
Счетчик
Голосуй за нас
Популярное
загрузка...
Товары интернет магазина
загрузка...

Афера под прикрытием (2016) BDRip 720p | Лицензия

Афера под прикрытием (2016) BDRip 720p | Лицензия
Участники торрент обмена
Сидов Пиров Скачали
2 0 310
Характеристика
Размер Файлы
8.84 GB
Релиз группа
Поделиться раздачей
Фильмы (720,1080,Blu-Ray)
Наименование: Афера под прикрытием
Оригинальное наименование: The Infiltrator
Произведено: Великобритания
Категория: триллер, драма, криминал, биография
Режиссер постановщик: Брэд Фурман
В главных ролях: Брайан Крэнстон, Лиэнн Бест, Дэниэл Мейс, Том Вон-Лолор, Ниал Хэйес, Лара Дэкаро, Джульетт Обри, Олимпия Дукакис, Эми Райан, Джон Легуизамо
Краткое описание: Федеральный агент Боб Мейзур, специалист по внедрению в преступные группировки, ставит себе целью раскрыть схему отмывания денег наркокартеля Пабло Эскобара. В одной команде со вспыльчивым оперативником Эмиром Абреу, а также начинающим агентом Кэти Эртс, исполняющей роль подставной невесты Боба, ему предстоит провернуть самую рискованную операцию под прикрытием в истории.
  • Видео данные: MPEG-4 AVC, 8000 Кбит/с, 1280x536, 23.976 кадр/с
    Аудио данные: Русский (AC3, 6 ch, 448 Кбит/с), английский (DTS, 6 ch, 1510 Кбит/с)
    Перевод: Дублированный [Лицензия]
    Субтитры: Английские
    Продолжительность: 02:07:09
  • Афера под прикрытием (2016) BDRip 720p | Лицензия Афера под прикрытием (2016) BDRip 720p | Лицензия Афера под прикрытием (2016) BDRip 720p | Лицензия
  • General
    Unique ID : 247426275141785404631443557162441768167 (0xBA249136241803F2879CF5E5C5E7FCE7)
    Complete name : F:VideoThe.Infiltrator.2016.D.BDRip.720p.ExKinoRay.mkv
    Format : Matroska
    Format version : Version 4 / Version 2
    File size : 8.84 GiB
    Duration : 2 h 7 min
    Overall bit rate : 9 951 kb/s
    Movie name : The.Infiltrator.2016. ***селезень***
    Encoded date : UTC 2016-12-21 14:25:39
    Writing application : mkvmerge v8.3.0 ('Over the Horizon') 64bit
    Writing library : libebml v1.3.1 + libmatroska v1.4.2

    Video
    ID : 1
    Format : AVC
    Format/Info : Advanced Video Codec
    Format profile : High@L4.1
    Format settings, CABAC : Yes
    Format settings, ReFrames : 12 frames
    Codec ID : V_MPEG4/ISO/AVC
    Duration : 2 h 7 min
    Bit rate : 8 000 kb/s
    Width : 1 280 pixels
    Height : 536 pixels
    Display aspect ratio : 2.40:1
    Frame rate mode : Constant
    Frame rate : 23.976 (24000/1001) FPS
    Color space : YUV
    Chroma subsampling : 4:2:0
    Bit depth : 8 bits
    Scan type : Progressive
    Bits/(Pixel*Frame) : 0.486
    Stream size : 7.10 GiB (80%)
    Title : The.Infiltrator.2016. ***селезень***
    Writing library : x264 core 148 r2665kMod a01e339
    Encoding settings : cabac=1 / ref=12 / deblock=1:-3:-3 / analyse=0x3:0x133 / me=umh / subme=11 / psy=1 / fade_compensate=0.00 / psy_rd=1.05:0.00 / mixed_ref=1 / me_range=32 / chroma_me=1 / trellis=2 / 8x8dct=1 / cqm=0 / deadzone=21,11 / fast_pskip=0 / chroma_qp_offset=-2 / threads=17 / lookahead_threads=2 / sliced_threads=0 / nr=0 / decimate=0 / interlaced=0 / bluray_compat=0 / constrained_intra=0 / fgo=0 / bframes=8 / b_pyramid=2 / b_adapt=2 / b_bias=0 / direct=3 / weightb=1 / open_gop=0 / weightp=2 / keyint=240 / keyint_min=24 / scenecut=40 / intra_refresh=0 / rc=2pass / mbtree=0 / bitrate=8000 / ratetol=1.0 / qcomp=0.70 / qpmin=0 / qpmax=69 / qpstep=4 / cplxblur=20.0 / qblur=0.5 / ip_ratio=1.20 / pb_ratio=1.20 / aq=3:0.85
    Language : English
    Default : Yes
    Forced : No

    Audio #1
    ID : 2
    Format : AC-3
    Format/Info : Audio Coding 3
    Mode extension : CM (complete main)
    Format settings, Endianness : Big
    Codec ID : A_AC3
    Duration : 2 h 7 min
    Bit rate mode : Constant
    Bit rate : 448 kb/s
    Channel(s) : 6 channels
    Channel positions : Front: L C R, Side: L R, LFE
    Sampling rate : 48.0 kHz
    Frame rate : 31.250 FPS (1536 spf)
    Bit depth : 16 bits
    Compression mode : Lossy
    Stream size : 407 MiB (4%)
    Title : Dub [License]
    Language : Russian
    Default : Yes
    Forced : No

    Audio #2
    ID : 3
    Format : DTS
    Format/Info : Digital Theater Systems
    Mode : 16
    Format settings, Endianness : Big
    Codec ID : A_DTS
    Duration : 2 h 7 min
    Bit rate mode : Constant
    Bit rate : 1 509 kb/s
    Channel(s) : 6 channels
    Channel positions : Front: L C R, Side: L R, LFE
    Sampling rate : 48.0 kHz
    Frame rate : 93.750 FPS (512 spf)
    Bit depth : 24 bits
    Compression mode : Lossy
    Stream size : 1.34 GiB (15%)
    Title : Original
    Language : English
    Default : No
    Forced : No

    Text
    ID : 4
    Format : UTF-8
    Codec ID : S_TEXT/UTF8
    Codec ID/Info : UTF-8 Plain Text
    Duration : 1 h 56 min
    Bit rate : 71 b/s
    Count of elements : 1724
    Stream size : 60.7 KiB (0%)
    Title : Full
    Language : English
    Default : No
    Forced : No

    Menu
    00:00:00.000 : en:00:00:00.000
    00:09:01.666 : en:00:09:01.666
    00:17:00.686 : en:00:17:00.686
    00:24:48.654 : en:00:24:48.654
    00:28:36.882 : en:00:28:36.882
    00:35:12.193 : en:00:35:12.193
    00:42:31.340 : en:00:42:31.340
    00:51:42.725 : en:00:51:42.725
    00:57:40.832 : en:00:57:40.832
    01:02:47.806 : en:01:02:47.806
    01:07:41.474 : en:01:07:41.474
    01:17:04.662 : en:01:17:04.662
    01:24:18.553 : en:01:24:18.553
    01:31:43.832 : en:01:31:43.832
    01:40:58.970 : en:01:40:58.970
    01:47:44.249 : en:01:47:44.249
    01:52:50.222 : en:01:52:50.222
    01:58:14.129 : en:01:58:14.129
7.3 из 10
голосов: 7
/10
/10
foster720p 21-12-2016, 18:22
Информация
Посетители, находящиеся в группе Гости, не могут оставлять комментарии к данной публикации.