Панель пользователя
Регистрация

Воспользуйтесь социальными сетями для входа на https://freerutor.com

vk odnoklassniki facebook mailru yandex google
Рекомендуем
Document
Счетчик
Голосуй за нас
Популярное
загрузка...
Товары интернет магазина
загрузка...

Афера под прикрытием (2016) BDRip 1080p | Лицензия

Афера под прикрытием (2016) BDRip 1080p | Лицензия
Участники торрент обмена
Сидов Пиров Скачали
2 0 461
Характеристика
Размер Файлы
11.27 GB
Релиз группа
Поделиться раздачей
Фильмы (720,1080,Blu-Ray)
Наименование: Афера под прикрытием
Оригинальное наименование: The Infiltrator
Произведено: Великобритания
Категория: триллер, драма, криминал, биография
Режиссер постановщик: Брэд Фурман
В главных ролях: Брайан Крэнстон, Лиэнн Бест, Дэниэл Мейс, Том Вон-Лолор, Ниал Хэйес, Лара Дэкаро, Джульетт Обри, Олимпия Дукакис, Эми Райан, Джон Легуизамо
Краткое описание: Федеральный агент Боб Мейзур, специалист по внедрению в преступные группировки, ставит себе целью раскрыть схему отмывания денег наркокартеля Пабло Эскобара. В одной команде со вспыльчивым оперативником Эмиром Абреу, а также начинающим агентом Кэти Эртс, исполняющей роль подставной невесты Боба, ему предстоит провернуть самую рискованную операцию под прикрытием в истории.
  • Видео данные: MPEG-4 AVC, 11.6 Mбит/с, 1920x802
    Аудио данные: Русский (AC3, 6 ch, 448 Кбит/с), английский (AC3, 6 ch, 640 Кбит/с)
    Перевод: Дублированный [iTunes]
    Субтитры: Английские
    Продолжительность: 02:07:08
  • Афера под прикрытием (2016) BDRip 1080p | Лицензия Афера под прикрытием (2016) BDRip 1080p | Лицензия Афера под прикрытием (2016) BDRip 1080p | Лицензия
  • x264 [info]: frame I:1128 Avg QP:16.84 size:197748
    x264 [info]: frame P:38737 Avg QP:19.35 size: 92517
    x264 [info]: frame B:143039 Avg QP:21.55 size: 50705

    Общее
    Уникальный идентификатор : 220645232816987887327194005060765367828 (0xA5FEB9E17BBD71D8A78B3F2F93A83E14)
    Полное имя : X:ATorrentThe.Infiltrator.(2016).BDRip.1080p.(qqss44).mkv
    Формат : Matroska
    Версия формата : Version 2
    Размер файла : 11,3 Гбайт
    Продолжительность : 2 ч. 7 м.
    Общий поток : 12,7 Мбит/сек
    Название фильма : The.Infiltrator.(2016).BDRip1080p.(qqss44)
    Дата кодирования : UTC 2016-12-21 14:17:00
    Программа кодирования : mkvmerge v7.9.0 ('Birds') 64bit
    Библиотека кодирования : libebml v1.3.1 + libmatroska v1.4.2

    Видео
    Идентификатор : 1
    Формат : AVC
    Формат/Информация : Advanced Video Codec
    Профиль формата : High@L4.1
    Параметр CABAC формата : Да
    Параметр ReFrames формата : 5 кадров
    Идентификатор кодека : V_MPEG4/ISO/AVC
    Продолжительность : 2 ч. 7 м.
    Битрейт : 11,6 Мбит/сек
    Ширина : 1920 пикселей
    Высота : 802 пикселя
    Соотношение сторон : 2,40:1
    Режим частоты кадров : Постоянный
    Частота кадров : 23,976 (24000/1001) кадра/сек
    Цветовое пространство : YUV
    Субдискретизация насыщенности : 4:2:0
    Битовая глубина : 8 бит
    Тип развёртки : Прогрессивная
    Бит/(Пиксели*Кадры) : 0.315
    Размер потока : 10,3 Гбайт (91%)
    Заголовок : The.Infiltrator.(2016)
    Библиотека кодирования : x264 core 148 r2721kMod 72d53ab
    Настройки программы : cabac=1 / ref=5 / deblock=1:-3:-3 / analyse=0x3:0x133 / me=umh / subme=11 / psy=1 / fade_compensate=0.00 / psy_rd=1.00:0.00 / mixed_ref=1 / me_range=32 / chroma_me=1 / trellis=2 / 8x8dct=1 / cqm=0 / deadzone=21,11 / fast_pskip=0 / chroma_qp_offset=-2 / threads=12 / lookahead_threads=3 / sliced_threads=0 / nr=0 / decimate=0 / interlaced=0 / bluray_compat=0 / constrained_intra=0 / fgo=0 / bframes=12 / b_pyramid=2 / b_adapt=2 / b_bias=0 / direct=3 / weightb=1 / open_gop=0 / weightp=2 / keyint=240 / keyint_min=23 / scenecut=40 / intra_refresh=0 / rc=2pass / mbtree=0 / bitrate=11619 / ratetol=1.0 / qcomp=0.60 / qpmin=0 / qpmax=69 / qpstep=4 / cplxblur=20.0 / qblur=0.5 / ip_ratio=1.40 / pb_ratio=1.30 / aq=1:1.00
    Язык : English
    Default : Да
    Forced : Нет

    Аудио #1
    Идентификатор : 2
    Формат : AC-3
    Формат/Информация : Audio Coding 3
    Расширение режима : CM (complete main)
    Параметр Endianness формата : Big
    Идентификатор кодека : A_AC3
    Продолжительность : 2 ч. 7 м.
    Вид битрейта : Постоянный
    Битрейт : 448 Кбит/сек
    Каналы : 6 каналов
    Расположение каналов : Front: L C R, Side: L R, LFE
    Частота : 48,0 КГц
    Частота кадров : 31,250 кадров/сек (1536 spf)
    Метод сжатия : С потерями
    Размер потока : 407 Мбайт (4%)
    Заголовок : DUB | DD5.1 @ 448 kbps
    Язык : Russian
    Default : Да
    Forced : Нет

    Аудио #2
    Идентификатор : 3
    Формат : AC-3
    Формат/Информация : Audio Coding 3
    Расширение режима : CM (complete main)
    Параметр Endianness формата : Big
    Идентификатор кодека : A_AC3
    Продолжительность : 2 ч. 7 м.
    Вид битрейта : Постоянный
    Битрейт : 640 Кбит/сек
    Каналы : 6 каналов
    Расположение каналов : Front: L C R, Side: L R, LFE
    Частота : 48,0 КГц
    Частота кадров : 31,250 кадров/сек (1536 spf)
    Метод сжатия : С потерями
    Размер потока : 582 Мбайт (5%)
    Заголовок : Original | DD5.1 @ 640 kbps
    Язык : English
    Default : Нет
    Forced : Нет

    Текст
    Идентификатор : 4
    Формат : UTF-8
    Идентификатор кодека : S_TEXT/UTF8
    Идентификатор кодека/Информация : UTF-8 Plain Text
    Продолжительность : 1 ч. 56 м.
    Битрейт : 71 бит/сек
    Count of elements : 1723
    Размер потока : 60,6 Кбайт (0%)
    Заголовок : Full
    Язык : English
    Default : Нет
    Forced : Нет
10.0 из 10
голосов: 4
/10
/10
foster720p 21-12-2016, 18:34

riveter | 14-10-2016, 20:00 | Статус: Оффлайн

Кто поганит звук?
Практически все релизы от Koshara слушать невозможно.
Информация
Посетители, находящиеся в группе Гости, не могут оставлять комментарии к данной публикации.