Панель пользователя
Регистрация

Воспользуйтесь социальными сетями для входа на https://freerutor.com

vk odnoklassniki facebook mailru yandex google
Рекомендуем
Document
Счетчик
Пожертвование
Голосуй за нас
Товары интернет магазина
Document

Абатуар. Лабиринт страха (2016) BDRip 720p

Абатуар. Лабиринт страха (2016) BDRip 720p
Участники торрент обмена
Сидов Пиров Скачали
15 0 5563
Характеристика
Размер Файлы
4.01 GB
Поделиться раздачей
Фильмы (720,1080,Blu-Ray)
Наименование: Абатуар
Оригинальное наименование: Abattoir
Категория: ужасы, триллер
Произведено: CША
Режиссер постановщик: Даррен Линн Боусман
В главных ролях: Джессика Лаундес, Джо Андерсон, Лин Шэй, Майкл Паре, Дэйтон Калли, Брайан Бэтт, Джон МакКоннелл, Эйден Флауэрс, Томас Мерфи, Джэй Хьюджули
Краткое описание: Журналистка Джулия ведет расследование странных обстоятельств смерти своей сестры. Муж, одержимый жуткими видениями, убил жену и сына, а комната, где произошло преступление, исчезла. Джулия выясняет, что такое уже случалось раньше, а покупателем домов, где произошли убийства, всегда выступал человек по имени Джеремайя Крон. Следы таинственного покупателя приводят Джулию в затерявшееся на карте место, где из материалов пропавших комнат строится дом с призраками. Но самое страшное — не сам дом, а кому и для чего он нужен.
  • Видео данные: MPEG-4 AVC, 4900 kbps, 1280x536
    Аудио данные: Russian: AC3, 256 kb/s (2 ch) / English: AC3, 640 kb/s (6 ch)
    Перевод: Дублированный [Официальный звук]
    Продолжительность: 01:39:04
    Релиз без рекламы.
  • Абатуар. Лабиринт страха (2016) BDRip 720p Абатуар. Лабиринт страха (2016) BDRip 720p Абатуар. Лабиринт страха (2016) BDRip 720p
  • Общее
    Уникальный идентификатор : 247533432953344466355579316628136420178 (0xBA39347FDF6548318AB11451C7786352)
    Полное имя : D:\загрузки\Abattoir.2016.D.BDRip.72Op.mkv
    Формат : Matroska
    Версия формата : Version 2
    Размер файла : 4,01 Гбайт
    Продолжительность : 1 ч. 39 м.
    Общий поток : 5799 Кбит/сек
    Дата кодирования : UTC 2016-12-19 21:38:58
    Программа кодирования : mkvmerge v8.3.0 ('Over the Horizon') 64bit
    Библиотека кодирования : libebml v1.3.1 + libmatroska v1.4.2
    DURATION : 01:38:15.348000000
    NUMBER_OF_FRAMES : 1166
    NUMBER_OF_BYTES : 40377
    _STATISTICS_WRITING_APP : mkvmerge v8.3.0 ('Over the Horizon') 64bit
    _STATISTICS_WRITING_DATE_UTC : 2016-12-19 21:38:58
    _STATISTICS_TAGS : BPS DURATION NUMBER_OF_FRAMES NUMBER_OF_BYTES

    Видео
    Идентификатор : 1
    Формат : AVC
    Формат/Информация : Advanced Video Codec
    Профиль формата : High@L4.1
    Параметр CABAC формата : Да
    Параметр ReFrames формата : 12 кадров
    Идентификатор кодека : V_MPEG4/ISO/AVC
    Продолжительность : 1 ч. 39 м.
    Битрейт : 4900 Кбит/сек
    Ширина : 1280 пикселей
    Высота : 536 пикселей
    Соотношение сторон : 2,40:1
    Режим частоты кадров : Постоянный
    Частота кадров : 23,976 кадра/сек
    Цветовое пространство : YUV
    Субдискретизация насыщенности : 4:2:0
    Битовая глубина : 8 бит
    Тип развёртки : Прогрессивная
    Бит/(Пиксели*Кадры) : 0.298
    Размер потока : 3,31 Гбайт (83%)
    Библиотека кодирования : x264 core 148 r2705 3f5ed56
    Настройки программы : cabac=1 / ref=12 / deblock=1:-3:-3 / analyse=0x3:0x133 / me=umh / subme=10 / psy=1 / psy_rd=1.00:0.00 / mixed_ref=1 / me_range=32 / chroma_me=1 / trellis=2 / 8x8dct=1 / cqm=0 / deadzone=21,11 / fast_pskip=0 / chroma_qp_offset=-2 / threads=17 / lookahead_threads=2 / sliced_threads=0 / slices=4 / nr=0 / decimate=0 / interlaced=0 / bluray_compat=0 / constrained_intra=0 / bframes=8 / b_pyramid=2 / b_adapt=2 / b_bias=0 / direct=3 / weightb=1 / open_gop=0 / weightp=2 / keyint=250 / keyint_min=23 / scenecut=40 / intra_refresh=0 / rc_lookahead=40 / rc=2pass / mbtree=0 / bitrate=4900 / ratetol=1.0 / qcomp=0.65 / qpmin=0 / qpmax=51 / qpstep=4 / cplxblur=20.0 / qblur=0.5 / vbv_maxrate=62500 / vbv_bufsize=78125 / nal_hrd=none / filler=0 / ip_ratio=1.40 / pb_ratio=1.30 / aq=3:0.75 / zones=0,589,b=2
    Язык : English
    Default : Да
    Forced : Нет
    DURATION : 01:39:03.521000000
    NUMBER_OF_FRAMES : 142502
    NUMBER_OF_BYTES : 3640867587
    _STATISTICS_WRITING_APP : mkvmerge v8.3.0 ('Over the Horizon') 64bit
    _STATISTICS_WRITING_DATE_UTC : 2016-12-19 21:38:58
    _STATISTICS_TAGS : BPS DURATION NUMBER_OF_FRAMES NUMBER_OF_BYTES

    Аудио #1
    Идентификатор : 2
    Формат : AC-3
    Формат/Информация : Audio Coding 3
    Профиль формата : Dolby Digital
    Расширение режима : CM (complete main)
    Параметр Endianness формата : Big
    Идентификатор кодека : A_AC3
    Продолжительность : 1 ч. 39 м.
    Вид битрейта : Постоянный
    Битрейт : 256 Кбит/сек
    Каналы : 2 канала
    Расположение каналов : Front: L R
    Частота : 48,0 КГц
    Битовая глубина : 16 бит
    Метод сжатия : С потерями
    Размер потока : 181 Мбайт (4%)
    Язык : Russian
    Default : Да
    Forced : Нет

    Аудио #2
    Идентификатор : 3
    Формат : AC-3
    Формат/Информация : Audio Coding 3
    Расширение режима : CM (complete main)
    Параметр Endianness формата : Big
    Идентификатор кодека : A_AC3
    Продолжительность : 1 ч. 39 м.
    Вид битрейта : Постоянный
    Битрейт : 640 Кбит/сек
    Каналы : 6 каналов
    Расположение каналов : Front: L C R, Side: L R, LFE
    Частота : 48,0 КГц
    Битовая глубина : 16 бит
    Метод сжатия : С потерями
    Размер потока : 453 Мбайт (11%)
    Язык : English
    Default : Нет
    Forced : Нет

    Текст #1
    Идентификатор : 4
    Формат : UTF-8
    Идентификатор кодека : S_TEXT/UTF8
    Идентификатор кодека/Информация : UTF-8 Plain Text
    Заголовок : English
    Язык : English
    Default : Нет
    Forced : Нет

    Текст #2
    Идентификатор : 5
    Формат : UTF-8
    Идентификатор кодека : S_TEXT/UTF8
    Идентификатор кодека/Информация : UTF-8 Plain Text
    Заголовок : English SDH
    Язык : English
    Default : Нет
    Forced : Нет

    Меню
    00:00:00.000 : en:1
    00:08:22.711 : en:2
    00:15:56.164 : en:3
    00:24:36.517 : en:4
    00:30:10.517 : en:5
    00:37:15.191 : en:6
    00:49:58.787 : en:7
    00:56:37.644 : en:8
    01:03:54.873 : en:9
    01:11:52.308 : en:10
    01:20:01.046 : en:11
    01:26:27.265 : en:12

5.5 из 10
голосов: 6
4.213 3091 4.4 2350
SANJOK 20-12-2016, 03:56

Stalin | 27-09-2016, 22:30 | Статус: Оффлайн

хорошая озвучка, можно посмотреть, спасибо!
Информация
Посетители, находящиеся в группе Гости, не могут оставлять комментарии к данной публикации.