Панель пользователя
Регистрация

Воспользуйтесь социальными сетями для входа на https://freerutor.com

vk odnoklassniki facebook mailru yandex google
Рекомендуем
Document
Счетчик
Голосуй за нас
Товары интернет магазина

Сатанинский (2016) BDRip 1080p

Сатанинский (2016) BDRip 1080p
Участники торрент обмена
Сидов Пиров Скачали
0 0 427
Характеристика
Размер Файлы
6.67 GB
Поделиться раздачей
Фильмы (720,1080,Blu-Ray)
Наименование: Сатанинский
Оригинальное наименование: Satanic
Категория: Ужасы
Произведено: США / Circle of Confusion, Magnet Releasing, Marvista Entertainment
Режиссер постановщик: Джеффри Дж. Хант
В главных ролях: Сара Хайланд, Стивен Крюгер, Джастин Чон, Клара Мамет, Софи Дала, Энтони Кэрриган, Марк Барнс, Стевин Найт, Уилльям Доберт, Джеффри Дж. Хант
Краткое описание: Четверо друзей отправляются на музыкальный фестиваль Коачелла. Герои делают остановку в Лос-Анджелесе, чтобы посетить места, где некогда были совершены массовые убийства, сопровождавшиеся оккультными обрядами. Вскоре они знакомятся с молодой девушкой, которая становится их проводником в мир бесконечного ужаса.
  • Видео данные: MPEG-4 AVC, 9630 Кбит/с, 1920x800
    Аудио данные: Русский (AC3, 2 ch, 192 Кбит/с), английский (DTS, 6 ch, 1509 Кбит/с)
    Перевод: Любительский одноголосый [ХixiDok]
    Продолжительность: 01:24:17
    РЕЛИЗ БЕЗ РЕКЛАМЫ!
  • Сатанинский (2016) BDRip 1080p Сатанинский (2016) BDRip 1080p Сатанинский (2016) BDRip 1080p
  • General
    Unique ID : 216987062119899659205983831510369878828 (0xA33E3023EC2477C9BB82FE5AAA62C32C)
    Complete name : I:\Satanic.2016.L1.BDRip.1080p.x264.Rus.Eng.mkv
    Format : Matroska
    Format version : Version 4 / Version 2
    File size : 6.67 GiB
    Duration : 1h 24mn
    Overall bit rate : 11.3 Mbps
    Encoded date : UTC 2016-09-24 08:36:55
    Writing application : mkvmerge v8.3.0 ('Over the Horizon') 32bit
    Writing library : libebml v1.3.1 + libmatroska v1.4.2
    DURATION : 01:24:17.794000000
    NUMBER_OF_FRAMES : 145214
    NUMBER_OF_BYTES : 121387050
    _STATISTICS_WRITING_APP : mkvmerge v8.3.0 ('Over the Horizon') 32bit
    _STATISTICS_WRITING_DATE_UTC : 2016-09-24 08:36:55
    _STATISTICS_TAGS : BPS DURATION NUMBER_OF_FRAMES NUMBER_OF_BYTES
    Attachment : Yes

    Video
    ID : 1
    Format : AVC
    Format/Info : Advanced Video Codec
    Format profile : High@L4.1
    Format settings, CABAC : Yes
    Format settings, ReFrames : 5 frames
    Codec ID : V_MPEG4/ISO/AVC
    Duration : 1h 24mn
    Bit rate : 9 630 Kbps
    Width : 1 920 pixels
    Height : 800 pixels
    Display aspect ratio : 2.40:1
    Frame rate mode : Constant
    Frame rate : 23.976 fps
    Color space : YUV
    Chroma subsampling : 4:2:0
    Bit depth : 8 bits
    Scan type : Progressive
    Bits/(Pixel*Frame) : 0.261
    Stream size : 5.54 GiB (83%)
    Writing library : x264 core 148 r2692 64f4e24
    Encoding settings : cabac=1 / ref=5 / deblock=1:0:0 / analyse=0x3:0x133 / me=umh / subme=7 / psy=1 / psy_rd=1.00:0.00 / mixed_ref=1 / me_range=16 / chroma_me=1 / trellis=1 / 8x8dct=1 / cqm=0 / deadzone=21,11 / fast_pskip=0 / chroma_qp_offset=-2 / threads=24 / lookahead_threads=4 / sliced_threads=0 / nr=0 / decimate=1 / interlaced=0 / bluray_compat=0 / constrained_intra=0 / bframes=3 / b_pyramid=2 / b_adapt=1 / b_bias=0 / direct=1 / weightb=1 / open_gop=0 / weightp=2 / keyint=250 / keyint_min=23 / scenecut=40 / intra_refresh=0 / rc_lookahead=40 / rc=2pass / mbtree=1 / bitrate=9630 / ratetol=1.0 / qcomp=0.60 / qpmin=0 / qpmax=69 / qpstep=4 / cplxblur=20.0 / qblur=0.5 / ip_ratio=1.40 / aq=1:1.00
    Language : English
    Default : Yes
    Forced : No
    DURATION : 01:24:16.602000000
    NUMBER_OF_FRAMES : 121237
    NUMBER_OF_BYTES : 6084569279
    _STATISTICS_WRITING_APP : mkvmerge v8.3.0 ('Over the Horizon') 32bit
    _STATISTICS_WRITING_DATE_UTC : 2016-09-24 08:36:55
    _STATISTICS_TAGS : BPS DURATION NUMBER_OF_FRAMES NUMBER_OF_BYTES

    Audio #1
    ID : 2
    Format : AC-3
    Format/Info : Audio Coding 3
    Mode extension : CM (complete main)
    Format settings, Endianness : Big
    Codec ID : A_AC3
    Duration : 1h 24mn
    Bit rate mode : Constant
    Bit rate : 192 Kbps
    Channel(s) : 2 channels
    Channel positions : Front: L R
    Sampling rate : 44.1 KHz
    Bit depth : 16 bits
    Compression mode : Lossy
    Stream size : 116 MiB (2%)
    Title : Любительский одноголосый [Хихикающий доктор]
    Language : Russian
    Default : Yes
    Forced : No

    Audio #2
    ID : 3
    Format : DTS
    Format/Info : Digital Theater Systems
    Mode : 16
    Format settings, Endianness : Big
    Codec ID : A_DTS
    Duration : 1h 24mn
    Bit rate mode : Constant
    Bit rate : 1 509 Kbps
    Channel(s) : 6 channels
    Channel positions : Front: L C R, Side: L R, LFE
    Sampling rate : 48.0 KHz
    Bit depth : 24 bits
    Compression mode : Lossy
    Stream size : 910 MiB (13%)
    Title : Original
    Language : English
    Default : No
    Forced : No

    Menu
    00:00:00.000 : en:00:00:00.000
    00:07:12.057 : en:00:07:12.057
    00:20:18.676 : en:00:20:18.676
    00:29:50.122 : en:00:29:50.122
    00:35:31.129 : en:00:35:31.129
    00:39:29.576 : en:00:39:29.576
    00:47:53.996 : en:00:47:53.996
    00:54:33.312 : en:00:54:33.312
    01:03:39.232 : en:01:03:39.232
    01:08:26.936 : en:01:08:26.936
    01:17:17.550 : en:01:17:17.550
    01:20:29.199 : en:01:20:29.199
10.0 из 10
голосов: 2
grab777 24-09-2016, 14:10

Serjerry | 24-09-2016, 14:35 | Статус: Оффлайн

Спасибо
Информация
Посетители, находящиеся в группе Гости, не могут оставлять комментарии к данной публикации.