Панель пользователя
Регистрация

Воспользуйтесь социальными сетями для входа на https://freerutor.com

vk odnoklassniki facebook mailru yandex google
Рекомендуем
Document
Счетчик
Голосуй за нас
Товары интернет магазина

Дом напротив / Сосед (2016) BDRip 720p | iTunes

Дом напротив / Сосед (2016) BDRip 720p | iTunes
Участники торрент обмена
Сидов Пиров Скачали
1 0 3100
Характеристика
Размер Файлы
3.83 GB
Поделиться раздачей
Фильмы (720,1080,Blu-Ray)
Наименование: Дом напротив / Сосед
Оригинальное наименование: The Neighbor
Произведено: США
Категория: ужасы, триллер, криминал
Режиссер постановщик: Маркус Данстэн
В главных ролях: Джош Стюарт, Билл Ингвалл, Александра Эссоу, Жаклин Флеминг, Люк Эдвардс,Скипп Саддат, Ронни Джин Блевинс, Хезер Уильямс, Дэвид Каллауэй
Краткое описание: У каждого человека есть свои скелеты в шкафу. Наркокурьер, переехав в новый дом, знакомится со своим соседом, у которого скелеты оказались не в шкафу, а подвале.
  • Видео данные: MPEG-4 AVC, 4421 kb/s, 1280x536
    Аудио данные: Russian: AC3, 384 kb/s (6 ch) / English: DTS, 1509 kb/s (6 ch)
    Перевод: Дублированный [iTunes]
    Продолжительность: 01:26:53
  • Дом напротив / Сосед (2016) BDRip 720p | iTunes Дом напротив / Сосед (2016) BDRip 720p | iTunes
  • Общее
    Уникальный идентификатор : 193176682657392322061288319583199452173 (0x915479CBFAAF9E72996EA8FF7A785C0D)
    Полное имя : D:\загрузки\Dom.Soseda.NaProtiFF.2016.D.BluRay.720p.mkv
    Формат : Matroska
    Версия формата : Version 2
    Размер файла : 3,83 Гбайт
    Продолжительность : 1 ч. 26 м.
    Общий поток : 6310 Кбит/сек
    Дата кодирования : UTC 2017-01-04 21:05:35
    Программа кодирования : mkvmerge v7.8.0 ('River Man') 32bit built on Apr 3 2015 12:11:22
    Библиотека кодирования : libebml v1.3.1 + libmatroska v1.4.2

    Видео
    Идентификатор : 1
    Формат : AVC
    Формат/Информация : Advanced Video Codec
    Профиль формата : High@L4.1
    Параметр CABAC формата : Да
    Параметр ReFrames формата : 12 кадров
    Идентификатор кодека : V_MPEG4/ISO/AVC
    Продолжительность : 1 ч. 26 м.
    Битрейт : 4291 Кбит/сек
    Ширина : 1280 пикселей
    Высота : 536 пикселей
    Соотношение сторон : 2,40:1
    Режим частоты кадров : Постоянный
    Частота кадров : 23,976 (24000/1001) кадра/сек
    Цветовое пространство : YUV
    Субдискретизация насыщенности : 4:2:0
    Битовая глубина : 8 бит
    Тип развёртки : Прогрессивная
    Бит/(Пиксели*Кадры) : 0.261
    Размер потока : 2,61 Гбайт (68%)
    Заголовок : FraMeSToR / MPEG-4 AVC Video / 4422 kbps / 23.976 fps / High Profile 4.1
    Библиотека кодирования : x264 core 142 r2431+42 c69a006 tMod [8-bit@4:2:0 X86]
    Настройки программы : cabac=1 / ref=12 / deblock=1:-2:-2 / analyse=0x3:0x113 / me=umh / subme=10 / psy=1 / fade_compensate=0.00 / psy_rd=0.90:0.00 / mixed_ref=1 / me_range=48 / chroma_me=1 / trellis=2 / 8x8dct=1 / cqm=0 / deadzone=11,6 / fast_pskip=0 / chroma_qp_offset=-2 / threads=14 / lookahead_threads=3 / sliced_threads=0 / nr=0 / decimate=1 / interlaced=0 / bluray_compat=0 / constrained_intra=0 / fgo=0 / bframes=16 / b_pyramid=2 / b_adapt=2 / b_bias=0 / direct=3 / weightb=1 / open_gop=0 / weightp=2 / keyint=240 / keyint_min=23 / scenecut=40 / intra_refresh=0 / rc_lookahead=120 / rc=crf / mbtree=1 / crf=13.9000 / qcomp=0.60 / qpmin=0:0:0 / qpmax=34:34:34 / qpstep=4 / vbv_maxrate=30000 / vbv_bufsize=38000 / crf_max=0.0 / nal_hrd=none / filler=0 / ip_ratio=1.40 / aq=4:0.92 / aq-sensitivity=10.00 / aq-factor=1.00:1.00:1.00 / aq2=0 / aq3=0
    Язык : English
    Default : Да
    Forced : Нет
    Цветовой диапазон : Limited
    Основные цвета : BT.709
    Характеристики трансфера : BT.709
    Коэффициенты матрицы : BT.709

    Аудио #1
    Идентификатор : 2
    Формат : AC-3
    Формат/Информация : Audio Coding 3
    Расширение режима : CM (complete main)
    Параметр Endianness формата : Big
    Идентификатор кодека : A_AC3
    Продолжительность : 1 ч. 26 м.
    Вид битрейта : Постоянный
    Битрейт : 384 Кбит/сек
    Каналы : 6 каналов
    Расположение каналов : Front: L C R, Side: L R, LFE
    Частота : 48,0 КГц
    Частота кадров : 31,250 кадров/сек (1536 spf)
    Битовая глубина : 16 бит
    Метод сжатия : С потерями
    Размер потока : 239 Мбайт (6%)
    Заголовок : iTunes
    Язык : Russian
    Default : Да
    Forced : Нет

    Аудио #2
    Идентификатор : 3
    Формат : DTS
    Формат/Информация : Digital Theater Systems
    Режим : 16
    Параметр Endianness формата : Big
    Идентификатор кодека : A_DTS
    Продолжительность : 1 ч. 26 м.
    Вид битрейта : Постоянный
    Битрейт : 1509 Кбит/сек
    Каналы : 6 каналов
    Расположение каналов : Front: L C R, Side: L R, LFE
    Частота : 48,0 КГц
    Частота кадров : 93,750 кадра/сек (512 spf)
    Битовая глубина : 16 бит
    Метод сжатия : С потерями
    Размер потока : 939 Мбайт (24%)
    Язык : English
    Default : Нет
    Forced : Нет

    Меню
    00:00:00.000 : en: 00:00:00.000
    00:08:05.485 : en: 00:08:05.485
    00:15:12.328 : en: 00:15:12.328
    00:22:33.769 : en: 00:22:33.769
    00:28:50.312 : en: 00:28:50.312
    00:37:03.972 : en: 00:37:03.972
    00:47:26.427 : en: 00:47:26.427
    00:52:43.660 : en: 00:52:43.660
    01:00:28.166 : en: 01:00:28.166
    01:09:35.421 : en: 01:09:35.421
    01:17:19.009 : en: 01:17:19.009
    01:22:54.428 : en: 01:22:54.428
9.8 из 10
голосов: 4
foster720p 5-01-2017, 00:09

foster720p | 23-12-2016, 20:56 | Статус: Оффлайн

Ссылка на скачивание http://freerutor.org/engine/download.php?id=207196

VINT341 | 19-09-2016, 19:40 | Статус: Оффлайн

Переводчик ужасный =((( Как я тебя ненавижу .....

jigsaw1712 | 19-09-2016, 18:01 | Статус: Оффлайн

Ухх! Спасибо большое! yahoo
Информация
Посетители, находящиеся в группе Гости, не могут оставлять комментарии к данной публикации.