Панель пользователя
Регистрация

Воспользуйтесь социальными сетями для входа на https://freerutor.com

vk odnoklassniki facebook mailru yandex google
Рекомендуем
загрузка...
Счетчик
Голосуй за нас
Популярное
Товары интернет магазина

Я не серийный убийца (2016) BDRip 720p

Я не серийный убийца (2016) BDRip 720p
Участники торрент обмена
Сидов Пиров Скачали
0 0 305
Характеристика
Размер Файлы
5.32 GB
Релиз группа
Поделиться раздачей
Фильмы (720,1080,Blu-Ray)
Наименование: Я не серийный убийца
Оригинальное наименование: I Am Not a Serial Killer
Произведено: Ирландия, Великобритания
Категория: триллер
Режиссер постановщик: Билли О`Брайэн
В главных ролях: Кристофер Ллойд, Лора Фрейзер, Макс Рекордс, Карл Джиари, Брюс Боне, Morgan Rysso, Эммилу Барден, Molly Gearen, Райан Дж. Гилмер, Тим Расселл
Краткое описание: 15-летний Джон Уэйн Кливер живёт с разведённой матерью и старшей сестрой. Он помогает маме работать в морге (его мать патологоанатом). В свободное время он страдает от преследующих его психопатических мыслей, в которых хочет убивать людей. Даже психолог доктор Неблин, к которому Джон ходит еженедельно, не может ему помочь. Вскоре в городе объявляется серийный убийца, который убивает мужчин и вынимает из них органы.
  • Видео данные: MPEG-4 AVC, 5500 Кбит/с, 1280x720
    Аудио данные: Русский (AC3, 6 ch, 448 Кбит/с), английский (DTS, 6 ch, 1509 Кбит/с)
    Перевод: Любительский многоголосый (Recent Films)
    Субтитры: Английские
    Продолжительность: 01:43:26
    РЕКЛАМЫ НЕТ!
  • Я не серийный убийца (2016) BDRip 720p Я не серийный убийца (2016) BDRip 720p Я не серийный убийца (2016) BDRip 720p
  • Общее
    Уникальный идентификатор : 205546631990108513381799171473501587080 (0x9AA2D762D45DB6C98963B46CAB240688)
    Полное имя : E:\Раздача-BDRip\Ya. Ne. Ubiica.2016.BDRip 720p_FreeRutor.mkv
    Формат : Matroska
    Версия формата : Version 2
    Размер файла : 5,32 Гбайт
    Продолжительность : 1 ч. 43 м.
    Общий поток : 7359 Кбит/сек
    Название фильма : I.Am.Not.A.Serial.Killer.2016.BDRip 720p_FreeRutor_grab777
    Дата кодирования : UTC 2016-12-20 05:36:36
    Программа кодирования : mkvmerge v5.8.0 ('No Sleep / Pillow') built on Sep 2 2012 15:37:04
    Библиотека кодирования : libebml v1.2.3 + libmatroska v1.3.0

    Видео
    Идентификатор : 1
    Формат : AVC
    Формат/Информация : Advanced Video Codec
    Профиль формата : High@L4.1
    Параметр CABAC формата : Да
    Параметр ReFrames формата : 4 кадра
    Идентификатор кодека : V_MPEG4/ISO/AVC
    Продолжительность : 1 ч. 43 м.
    Битрейт : 5500 Кбит/сек
    Ширина : 1280 пикселей
    Высота : 720 пикселей
    Соотношение сторон : 16:9
    Режим частоты кадров : Постоянный
    Частота кадров : 23,976 кадра/сек
    Цветовое пространство : YUV
    Субдискретизация насыщенности : 4:2:0
    Битовая глубина : 8 бит
    Тип развёртки : Прогрессивная
    Бит/(Пиксели*Кадры) : 0.249
    Размер потока : 3,80 Гбайт (71%)
    Заголовок : FGT
    Библиотека кодирования : x264 core 148 r2694 3b70645
    Настройки программы : cabac=1 / ref=4 / deblock=1:-2:-2 / analyse=0x3:0x113 / me=umh / subme=7 / psy=1 / psy_rd=1.00:0.15 / mixed_ref=1 / me_range=16 / chroma_me=1 / trellis=1 / 8x8dct=1 / cqm=0 / deadzone=21,11 / fast_pskip=1 / chroma_qp_offset=-3 / threads=40 / lookahead_threads=3 / sliced_threads=0 / nr=0 / decimate=1 / interlaced=0 / bluray_compat=0 / constrained_intra=0 / bframes=3 / b_pyramid=2 / b_adapt=2 / b_bias=0 / direct=3 / weightb=1 / open_gop=0 / weightp=2 / keyint=250 / keyint_min=25 / scenecut=40 / intra_refresh=0 / rc_lookahead=50 / rc=abr / mbtree=1 / bitrate=5500 / ratetol=1.0 / qcomp=0.60 / qpmin=0 / qpmax=69 / qpstep=4 / vbv_maxrate=31250 / vbv_bufsize=31250 / nal_hrd=none / filler=0 / ip_ratio=1.40 / aq=1:1.00
    Язык : English
    Default : Да
    Forced : Нет

    Аудио #1
    Идентификатор : 2
    Формат : AC-3
    Формат/Информация : Audio Coding 3
    Расширение режима : CM (complete main)
    Параметр Endianness формата : Big
    Идентификатор кодека : A_AC3
    Продолжительность : 1 ч. 43 м.
    Вид битрейта : Постоянный
    Битрейт : 448 Кбит/сек
    Каналы : 6 каналов
    Расположение каналов : Front: L C R, Side: L R, LFE
    Частота : 48,0 КГц
    Битовая глубина : 16 бит
    Метод сжатия : С потерями
    Размер потока : 331 Мбайт (6%)
    Заголовок : MVO (RATTLEBOX)
    Язык : Russian
    Default : Да
    Forced : Нет

    Аудио #2
    Идентификатор : 3
    Формат : DTS
    Формат/Информация : Digital Theater Systems
    Режим : 16
    Параметр Endianness формата : Big
    Идентификатор кодека : A_DTS
    Продолжительность : 1 ч. 43 м.
    Вид битрейта : Постоянный
    Битрейт : 1509 Кбит/сек
    Каналы : 6 каналов
    Расположение каналов : Front: L C R, Side: L R, LFE
    Частота : 48,0 КГц
    Битовая глубина : 24 бит
    Метод сжатия : С потерями
    Размер потока : 1,09 Гбайт (21%)
    Заголовок : Original
    Язык : English
    Default : Нет
    Forced : Нет

    Текст
    Идентификатор : 4
    Формат : UTF-8
    Идентификатор кодека : S_TEXT/UTF8
    Идентификатор кодека/Информация : UTF-8 Plain Text
    Язык : English
    Default : Нет
    Forced : Нет

    Меню
    00:00:00.000 : en:Chapter 01
    00:08:54.867 : en:Chapter 02
    00:17:41.060 : en:Chapter 03
    00:26:32.424 : en:Chapter 04
    00:35:22.203 : en:Chapter 05
    00:44:04.767 : en:Chapter 06
    00:51:38.845 : en:Chapter 07
    00:59:49.669 : en:Chapter 08
    01:09:25.828 : en:Chapter 09
    01:18:26.993 : en:Chapter 10
    01:27:26.032 : en:Chapter 11
    01:38:34.533 : en:Chapter 12

7.1 из 10
голосов: 13
/10
/10
Раздачу отредактировал: grab777 - 20-12-2016, 09:53
По причине: (Замена WEB-DL 720p на BDRip 720p)
foster720p 20-12-2016, 09:53
Информация
Посетители, находящиеся в группе Гости, не могут оставлять комментарии к данной публикации.