Панель пользователя
Регистрация

Воспользуйтесь социальными сетями для входа на https://freerutor.com

vk odnoklassniki facebook mailru yandex google
Рекомендуем
Document
Счетчик
Голосуй за нас
Товары интернет магазина
Document

Нерв (2016) BDRip 720p | iTunes

Нерв (2016) BDRip 720p |  iTunes
Участники торрент обмена
Сидов Пиров Скачали
47 16 238
Характеристика
Размер Файлы
5.94 GB
Поделиться раздачей
Фильмы (720,1080,Blu-Ray)
Наименование: Нерв
Оригинальное наименование: Nerve
Произведено: США
Категория: триллер, криминал, детектив, приключения
Режиссер постановщик: Генри Джуст, Эриель Шульман
В главных ролях: Эмма Робертс, Дэйв Франко, Эмили Мид, Майлс Хейзер, Кимико Гленн, Марк Джон Джеффрис, Машин Ган Келли, Брайан «Сене» Марк, Эд Сквайр, Райтор Дойл
Краткое описание: Поддавшись на уговоры одноклассниц, тихоня Ви открывает для себя мир популярной онлайн-игры «Нерв», где участники выполняют задания разной степени сложности, которые придумывают для них другие пользователи. В случае успеха игроки получают очень неплохие деньги. Ви проявляет неожиданную для самой себя смелость и отсутствие комплексов, и в очередном раунде знакомится с парнем по имени Иэн. Красивая пара нравится зрителям игры, и они решают, что следующие задания Ви и Иэн должны выполнять только вместе. Ставки растут, задания становятся все опаснее, и Ви постепенно понимает, что выйти из игры по собственной воле не получится. Те, кто считают себя игроками, на самом деле всего лишь пешки в руках таинственного сообщества Наблюдателей. И никто из участников игры не знает, какое задание станет следующим - или последним.
  • Видео данные: MPEG-4 AVC, 6927 Кбит/с, 1280х534
    Аудио данные: Русский (AC3, 6 ch, 384 Кбит/с), английский (DTS, 6 ch, 1509 Кбит/с)
    Перевод: Дублированный ( iTunes)
    Субтитры: Русские (форсированные), английские
    Продолжительность: 01:36:18
  • Нерв (2016) BDRip 720p |  iTunes Нерв (2016) BDRip 720p |  iTunes Нерв (2016) BDRip 720p |  iTunes
  • Общее
    Уникальный идентификатор : 244108307327397708760795471177829187779 (0xB7A58CC4A4E7921A96D3FF18BFF200C3)
    Полное имя : E:\Загрузки 2\Nerve.2O16.D.BDRip.72Op.mkv
    Формат : Matroska
    Версия формата : Version 2
    Размер файла : 5,94 Гбайт
    Продолжительность : 1 ч. 36 м.
    Общий поток : 8823 Кбит/сек
    Дата кодирования : UTC 2017-09-25 18:18:38
    Программа кодирования : mkvmerge v8.3.0 ('Over the Horizon') 64bit
    Библиотека кодирования : libebml v1.3.1 + libmatroska v1.4.2

    Видео
    Идентификатор : 1
    Формат : AVC
    Формат/Информация : Advanced Video Codec
    Профиль формата : High@L4.1
    Параметр CABAC формата : Да
    Параметр ReFrames формата : 12 кадров
    Идентификатор кодека : V_MPEG4/ISO/AVC
    Продолжительность : 1 ч. 36 м.
    Битрейт : 6927 Кбит/сек
    Ширина : 1280 пикселей
    Высота : 534 пикселя
    Соотношение сторон : 2,40:1
    Режим частоты кадров : Постоянный
    Частота кадров : 23,976 (24000/1001) кадра/сек
    Цветовое пространство : YUV
    Субдискретизация насыщенности : 4:2:0
    Битовая глубина : 8 бит
    Тип развёртки : Прогрессивная
    Бит/(Пиксели*Кадры) : 0.423
    Размер потока : 4,66 Гбайт (79%)
    Библиотека кодирования : x264 core 148 r2721kMod 72d53ab
    Настройки программы : cabac=1 / ref=12 / deblock=1:-3:-3 / analyse=0x3:0x133 / me=umh / subme=10 / psy=1 / fade_compensate=0.00 / psy_rd=1.00:0.00 / mixed_ref=1 / me_range=24 / chroma_me=1 / trellis=2 / 8x8dct=1 / cqm=0 / deadzone=21,11 / fast_pskip=0 / chroma_qp_offset=-2 / threads=56 / lookahead_threads=4 / sliced_threads=0 / nr=0 / decimate=0 / interlaced=0 / bluray_compat=0 / constrained_intra=0 / fgo=0 / bframes=7 / b_pyramid=2 / b_adapt=2 / b_bias=0 / direct=3 / weightb=1 / open_gop=0 / weightp=2 / keyint=250 / keyint_min=23 / scenecut=40 / intra_refresh=0 / rc_lookahead=60 / rc=crf / mbtree=0 / crf=16.0000 / qcomp=0.60 / qpmin=0 / qpmax=69 / qpstep=4 / vbv_maxrate=62500 / vbv_bufsize=78125 / crf_max=0.0 / nal_hrd=none / filler=0 / ip_ratio=1.30 / pb_ratio=1.20 / aq=3:0.75
    Язык : English
    Default : Да
    Forced : Нет
    Цветовой диапазон : Limited
    Коэффициенты матрицы : BT.709

    Аудио #1
    Идентификатор : 2
    Формат : AC-3
    Формат/Информация : Audio Coding 3
    Параметр Endianness формата : Big
    Идентификатор кодека : A_AC3
    Продолжительность : 1 ч. 36 м.
    Вид битрейта : Постоянный
    Битрейт : 384 Кбит/сек
    Каналы : 6 каналов
    Расположение каналов : Front: L C R, Side: L R, LFE
    Частота : 48,0 КГц
    Частота кадров : 31,250 кадров/сек (1536 spf)
    Битовая глубина : 16 бит
    Метод сжатия : С потерями
    Размер потока : 264 Мбайт (4%)
    Язык : Russian
    ServiceKind/String : Complete Main
    Default : Да
    Forced : Нет

    Аудио #2
    Идентификатор : 3
    Формат : DTS
    Формат/Информация : Digital Theater Systems
    Режим : 16
    Параметр Endianness формата : Big
    Идентификатор кодека : A_DTS
    Продолжительность : 1 ч. 36 м.
    Вид битрейта : Постоянный
    Битрейт : 1509 Кбит/сек
    Каналы : 6 каналов
    Расположение каналов : Front: L C R, Side: L R, LFE
    Частота : 48,0 КГц
    Частота кадров : 93,750 кадра/сек (512 spf)
    Битовая глубина : 24 бит
    Метод сжатия : С потерями
    Размер потока : 1,02 Гбайт (17%)
    Язык : English
    Default : Нет
    Forced : Нет

    Текст #1
    Идентификатор : 4
    Формат : UTF-8
    Идентификатор кодека : S_TEXT/UTF8
    Идентификатор кодека/Информация : UTF-8 Plain Text
    Продолжительность : 1 ч. 27 м.
    Битрейт : 5 бит/сек
    ElementCount : 73
    Размер потока : 3,62 Кбайт (0%)
    Язык : Russian
    Default : Да
    Forced : Нет

    Текст #2
    Идентификатор : 5
    Формат : UTF-8
    Идентификатор кодека : S_TEXT/UTF8
    Идентификатор кодека/Информация : UTF-8 Plain Text
    Продолжительность : 1 ч. 27 м.
    Битрейт : 62 бит/сек
    ElementCount : 1189
    Размер потока : 40,4 Кбайт (0%)
    Заголовок : SDH
    Язык : English
    Default : Нет
    Forced : Нет

    Текст #3
    Идентификатор : 6
    Формат : UTF-8
    Идентификатор кодека : S_TEXT/UTF8
    Идентификатор кодека/Информация : UTF-8 Plain Text
    Продолжительность : 1 ч. 26 м.
    Битрейт : 58 бит/сек
    ElementCount : 1072
    Размер потока : 37,1 Кбайт (0%)
    Язык : English
    Default : Нет
    Forced : Нет

    Меню
    00:00:00.000 : en:00:00:00.000
    00:05:14.189 : en:00:05:14.189
    00:13:43.406 : en:00:13:43.406
    00:20:40.239 : en:00:20:40.239
    00:28:42.304 : en:00:28:42.304
    00:33:27.088 : en:00:33:27.088
    00:38:34.437 : en:00:38:34.437
    00:43:36.405 : en:00:43:36.405
    00:49:17.872 : en:00:49:17.872
    00:53:07.643 : en:00:53:07.643
    00:58:18.578 : en:00:58:18.578
    01:05:59.330 : en:01:05:59.330
    01:10:17.338 : en:01:10:17.338
    01:14:40.643 : en:01:14:40.643
    01:19:07.868 : en:01:19:07.868
    01:27:20.860 : en:01:27:20.860
7.3 из 10
голосов: 19
CinemaRelizer Вчера, 23:59

Avenir97 | Сегодня, 11:35 | Статус: Оффлайн

Цитата: foster720p
Ссылка на скачивание http://freerutor.org/engine/download.php?id=236699

Спасибо, дорогой!

foster720p | 26-10-2016, 19:33 | Статус: Оффлайн

Ссылка на скачивание http://freerutor.org/engine/download.php?id=236699
Информация
Посетители, находящиеся в группе Гости, не могут оставлять комментарии к данной публикации.