Панель пользователя
Регистрация

Воспользуйтесь социальными сетями для входа на https://freerutor.com

vk odnoklassniki facebook mailru yandex google
Рекомендуем
Document
Счетчик
Голосуй за нас
Товары интернет магазина
Document

Человек, который познал бесконечность (2015) BDRip 1080p | iTunes

Человек, который познал бесконечность (2015) BDRip 1080p | iTunes
Участники торрент обмена
Сидов Пиров Скачали
2 0 749
Характеристика
Размер Файлы
10.99 GB
Релиз группа
Поделиться раздачей
Фильмы (720,1080,Blu-Ray)
Наименование: Человек, который познал бесконечность
Оригинальное наименование: The Man Who Knew Infinity
Произведено: Великобритания
Категория: драма, биография
Режиссер постановщик: Мэтт Браун
В главных ролях: Джереми Айронс, Дев Патель, Малкольм Синклер, Raghuvir Joshi, Дхритиман Чаттерджи, Стивен Фрай, Арундатхи Наг, Девика Бисе, Падрейк Делани, Тоби Джонс
Краткое описание: Фильм рассказывает о жизни известного индийского математика-самоучки Сриниваса Рамануджана.
  • Видео данные: MPEG-4 AVC, 13200 Кбит/с, 1920x804
    Аудио данные: Русский (AC3, 6 ch, 384 Кбит/с), английский (AC3, 6 ch, 640 Кбит/с)
    Продолжительность: 01:48:35
    Перевод: Дублированный (iTunes)
    Субтитры: Русские, английские
  • Человек, который познал бесконечность (2015) BDRip 1080p | iTunes Человек, который познал бесконечность (2015) BDRip 1080p | iTunes Человек, который познал бесконечность (2015) BDRip 1080p | iTunes
  • Общее
    Уникальный идентификатор : 178450612212035009604962996999555736712 (0x86405677CA0DEB8FB393082124D96488)
    Полное имя : D:\загрузки\The.Man.Who.Knew.Infinity.D.BDRip.1080p.mkv
    Формат : Matroska
    Версия формата : Version 2
    Размер файла : 11,0 Гбайт
    Продолжительность : 1 ч. 48 м.
    Общий поток : 14,5 Мбит/сек
    Дата кодирования : UTC 2017-04-22 23:47:28
    Программа кодирования : mkvmerge v7.8.0 ('River Man') 32bit built on Apr 3 2015 12:11:22
    Библиотека кодирования : libebml v1.3.1 + libmatroska v1.4.2

    Видео
    Идентификатор : 1
    Формат : AVC
    Формат/Информация : Advanced Video Codec
    Профиль формата : High@L4.1
    Параметр CABAC формата : Да
    Параметр ReFrames формата : 5 кадров
    Идентификатор кодека : V_MPEG4/ISO/AVC
    Продолжительность : 1 ч. 48 м.
    Битрейт : 13,2 Мбит/сек
    Ширина : 1920 пикселей
    Высота : 804 пикселя
    Соотношение сторон : 2,40:1
    Режим частоты кадров : Постоянный
    Частота кадров : 23,976 (24000/1001) кадра/сек
    Цветовое пространство : YUV
    Субдискретизация насыщенности : 4:2:0
    Битовая глубина : 8 бит
    Тип развёртки : Прогрессивная
    Бит/(Пиксели*Кадры) : 0.356
    Размер потока : 10,00 Гбайт (91%)
    Библиотека кодирования : x264 core 124 r2197+666+28 3970b70 tMod+MixAQ [8-bit@4:2:0 X86_64]
    Настройки программы : cabac=1 / ref=5 / deblock=1:-3:-3 / analyse=0x3:0x133 / me=tesa / subme=11 / psy=1 / fade_compensate=0.00 / psy_rd=1.10:0.10 / mixed_ref=1 / me_range=48 / chroma_me=1 / trellis=2 / 8x8dct=1 / cqm=0 / deadzone=21,11 / fast_pskip=0 / chroma_qp_offset=-1 / threads=12 / sliced_threads=0 / nr=0 / decimate=0 / interlaced=0 / bluray_compat=0 / constrained_intra=0 / fgo=0 / bframes=12 / b_pyramid=2 / b_adapt=2 / b_bias=0 / direct=3 / weightb=1 / open_gop=0 / weightp=2 / keyint=250 / keyint_min=23 / scenecut=40 / intra_refresh=0 / rc_lookahead=250 / rc=crf / mbtree=0 / crf=17.5000 / qcomp=0.75 / qpmin=0 / qpmax=69 / qpstep=4 / vbv_maxrate=38000 / vbv_bufsize=30000 / crf_max=0.0 / nal_hrd=none / ip_ratio=1.20 / pb_ratio=1.10 / aq=3 / aq-strength=0.60 / aq-sensitivity=10.00 / aq-ifactor=1.00 / aq-pfactor=1.00 / aq-bfactor=1.00 / aq2=0 / zones=148605,156218,crf=28
    Язык : English
    Default : Да
    Forced : Нет

    Аудио #1
    Идентификатор : 2
    Формат : AC-3
    Формат/Информация : Audio Coding 3
    Расширение режима : CM (complete main)
    Параметр Endianness формата : Big
    Идентификатор кодека : A_AC3
    Продолжительность : 1 ч. 48 м.
    Вид битрейта : Постоянный
    Битрейт : 384 Кбит/сек
    Каналы : 6 каналов
    Расположение каналов : Front: L C R, Side: L R, LFE
    Частота : 48,0 КГц
    Частота кадров : 31,250 кадров/сек (1536 spf)
    Битовая глубина : 16 бит
    Метод сжатия : С потерями
    Размер потока : 298 Мбайт (3%)
    Заголовок : iTunes
    Язык : Russian
    Default : Да
    Forced : Нет

    Аудио #2
    Идентификатор : 3
    Формат : AC-3
    Формат/Информация : Audio Coding 3
    Расширение режима : CM (complete main)
    Параметр Endianness формата : Big
    Идентификатор кодека : A_AC3
    Продолжительность : 1 ч. 48 м.
    Вид битрейта : Постоянный
    Битрейт : 640 Кбит/сек
    Каналы : 6 каналов
    Расположение каналов : Front: L C R, Side: L R, LFE
    Частота : 48,0 КГц
    Частота кадров : 31,250 кадров/сек (1536 spf)
    Битовая глубина : 16 бит
    Метод сжатия : С потерями
    Размер потока : 497 Мбайт (4%)
    Язык : English
    Default : Нет
    Forced : Нет

    Текст #1
    Идентификатор : 4
    Формат : UTF-8
    Идентификатор кодека : S_TEXT/UTF8
    Идентификатор кодека/Информация : UTF-8 Plain Text
    Заголовок : full
    Язык : Russian
    Default : Нет
    Forced : Нет

    Текст #2
    Идентификатор : 5
    Формат : UTF-8
    Идентификатор кодека : S_TEXT/UTF8
    Идентификатор кодека/Информация : UTF-8 Plain Text
    Заголовок : full
    Язык : English
    Default : Нет
    Forced : Нет

    Меню
    00:00:00.000 : en:00:00:00.000
    00:07:39.042 : en:00:07:39.042
    00:14:34.332 : en:00:14:34.332
    00:21:34.543 : en:00:21:34.543
    00:28:47.684 : en:00:28:47.684
    00:34:30.235 : en:00:34:30.235
    00:41:43.292 : en:00:41:43.292
    00:49:05.401 : en:00:49:05.401
    00:56:35.601 : en:00:56:35.601
    01:03:21.089 : en:01:03:21.089
    01:11:44.008 : en:01:11:44.008
    01:19:10.579 : en:01:19:10.579
    01:28:41.191 : en:01:28:41.191
    01:35:57.585 : en:01:35:57.585
    01:43:18.526 : en:01:43:18.526
7.0 из 10
голосов: 3
7.034 6340 7.2 29176
foster720p 23-04-2017, 03:00
Информация
Посетители, находящиеся в группе Гости, не могут оставлять комментарии к данной публикации.