Панель пользователя
Регистрация

Воспользуйтесь социальными сетями для входа на https://freerutor.com

vk odnoklassniki facebook mailru yandex google
Рекомендуем
Document
Счетчик
Голосуй за нас
Товары интернет магазина

Человек, который познал бесконечность (2015) BDRip 720p | iTunes

Человек, который познал бесконечность (2015) BDRip 720p | iTunes
Участники торрент обмена
Сидов Пиров Скачали
7 0 2522
Характеристика
Размер Файлы
4.33 GB
Релиз группа
Поделиться раздачей
Фильмы (720,1080,Blu-Ray)
Наименование: Человек, который познал бесконечность
Оригинальное наименование: The Man Who Knew Infinity
Произведено: Великобритания
Категория: драма, биография
Режиссер постановщик: Мэтт Браун
В главных ролях: Джереми Айронс, Дев Патель, Малкольм Синклер, Дхритиман Чаттерджи, Стивен Фрай, Арундатхи Наг, Девика Бисе, Падрейк Делани, Тоби Джонс
Краткое описание: Фильм рассказывает о жизни известного индийского математика-самоучки Сриниваса Рамануджана.
  • Видео данные: MPEG-4 AVC, 4687 Кбит/с, 1280x534
    Аудио данные: Русский (AC3, 6 ch, 384 Кбит/с), английский (AC3, 6 ch, 640 Кбит/с)
    Продолжительность: 01:48:35
    Перевод: Дублированный (iTunes)
    Субтитры: Русские, английские
  • Человек, который познал бесконечность (2015) BDRip 720p | iTunes Человек, который познал бесконечность (2015) BDRip 720p | iTunes Человек, который познал бесконечность (2015) BDRip 720p | iTunes
  • Общее
    Уникальный идентификатор : 250345449332958065803582313795369162763 (0xBC56C79C75CB34D6B1F27E44FC15D80B)
    Полное имя : D:\загрузки\The.Man.Who.Knew.Infinity.D.BDRip.720p.mkv
    Формат : Matroska
    Версия формата : Version 2
    Размер файла : 4,33 Гбайт
    Продолжительность : 1 ч. 48 м.
    Общий поток : 5708 Кбит/сек
    Дата кодирования : UTC 2017-04-23 08:02:59
    Программа кодирования : mkvmerge v7.8.0 ('River Man') 32bit built on Apr 3 2015 12:11:22
    Библиотека кодирования : libebml v1.3.1 + libmatroska v1.4.2

    Видео
    Идентификатор : 1
    Формат : AVC
    Формат/Информация : Advanced Video Codec
    Профиль формата : High@L4.1
    Параметр CABAC формата : Да
    Параметр ReFrames формата : 10 кадров
    Идентификатор кодека : V_MPEG4/ISO/AVC
    Продолжительность : 1 ч. 48 м.
    Битрейт : 4687 Кбит/сек
    Ширина : 1280 пикселей
    Высота : 534 пикселя
    Соотношение сторон : 2,40:1
    Режим частоты кадров : Постоянный
    Частота кадров : 23,976 (24000/1001) кадра/сек
    Цветовое пространство : YUV
    Субдискретизация насыщенности : 4:2:0
    Битовая глубина : 8 бит
    Тип развёртки : Прогрессивная
    Бит/(Пиксели*Кадры) : 0.286
    Размер потока : 3,47 Гбайт (80%)
    Библиотека кодирования : x264 core 142 r2431+42 c69a006 tMod [8-bit@all X86_64]
    Настройки программы : cabac=1 / ref=10 / deblock=1:-3:-3 / analyse=0x3:0x113 / me=umh / subme=10 / psy=1 / fade_compensate=0.00 / psy_rd=1.05:1.05 / mixed_ref=1 / me_range=36 / chroma_me=1 / trellis=2 / 8x8dct=1 / cqm=0 / deadzone=21,11 / fast_pskip=0 / chroma_qp_offset=-4 / threads=16 / lookahead_threads=4 / sliced_threads=0 / nr=0 / decimate=0 / interlaced=0 / bluray_compat=0 / constrained_intra=0 / fgo=0 / bframes=12 / b_pyramid=2 / b_adapt=2 / b_bias=0 / direct=3 / weightb=1 / open_gop=0 / weightp=2 / keyint=240 / keyint_min=23 / scenecut=40 / intra_refresh=0 / rc_lookahead=100 / rc=2pass / mbtree=0 / bitrate=4687 / ratetol=1.0 / qcomp=0.90 / qpmin=0:0:0 / qpmax=69:69:69 / qpstep=4 / cplxblur=20.0 / qblur=0.5 / vbv_maxrate=62500 / vbv_bufsize=78125 / nal_hrd=none / filler=0 / ip_ratio=1.40 / pb_ratio=1.30 / aq=2:0.90 / aq-sensitivity=10.00 / aq-factor=1.00:1.00:1.00 / aq2=0 / aq3=0
    Язык : English
    Default : Да
    Forced : Нет
    Цветовой диапазон : Limited
    Основные цвета : BT.709
    Характеристики трансфера : BT.709
    Коэффициенты матрицы : BT.709

    Аудио #1
    Идентификатор : 2
    Формат : AC-3
    Формат/Информация : Audio Coding 3
    Расширение режима : CM (complete main)
    Параметр Endianness формата : Big
    Идентификатор кодека : A_AC3
    Продолжительность : 1 ч. 48 м.
    Вид битрейта : Постоянный
    Битрейт : 384 Кбит/сек
    Каналы : 6 каналов
    Расположение каналов : Front: L C R, Side: L R, LFE
    Частота : 48,0 КГц
    Частота кадров : 31,250 кадров/сек (1536 spf)
    Битовая глубина : 16 бит
    Метод сжатия : С потерями
    Размер потока : 298 Мбайт (7%)
    Заголовок : iTunes
    Язык : Russian
    Default : Да
    Forced : Нет

    Аудио #2
    Идентификатор : 3
    Формат : AC-3
    Формат/Информация : Audio Coding 3
    Расширение режима : CM (complete main)
    Параметр Endianness формата : Big
    Идентификатор кодека : A_AC3
    Продолжительность : 1 ч. 48 м.
    Вид битрейта : Постоянный
    Битрейт : 640 Кбит/сек
    Каналы : 6 каналов
    Расположение каналов : Front: L C R, Side: L R, LFE
    Частота : 48,0 КГц
    Частота кадров : 31,250 кадров/сек (1536 spf)
    Битовая глубина : 16 бит
    Метод сжатия : С потерями
    Размер потока : 497 Мбайт (11%)
    Язык : English
    Default : Нет
    Forced : Нет

    Текст #1
    Идентификатор : 4
    Формат : UTF-8
    Идентификатор кодека : S_TEXT/UTF8
    Идентификатор кодека/Информация : UTF-8 Plain Text
    Заголовок : full
    Язык : Russian
    Default : Нет
    Forced : Нет

    Текст #2
    Идентификатор : 5
    Формат : UTF-8
    Идентификатор кодека : S_TEXT/UTF8
    Идентификатор кодека/Информация : UTF-8 Plain Text
    Заголовок : full
    Язык : English
    Default : Нет
    Forced : Нет

    Меню
    00:00:00.000 : en:00:00:00.000
    00:07:39.042 : en:00:07:39.042
    00:14:34.332 : en:00:14:34.332
    00:21:34.543 : en:00:21:34.543
    00:28:47.684 : en:00:28:47.684
    00:34:30.235 : en:00:34:30.235
    00:41:43.292 : en:00:41:43.292
    00:49:05.401 : en:00:49:05.401
    00:56:35.601 : en:00:56:35.601
    01:03:21.089 : en:01:03:21.089
    01:11:44.008 : en:01:11:44.008
    01:19:10.579 : en:01:19:10.579
    01:28:41.191 : en:01:28:41.191
    01:35:57.585 : en:01:35:57.585
    01:43:18.526 : en:01:43:18.526
8.0 из 10
голосов: 7
foster720p 23-04-2017, 11:14

zakaz4uck | 19-08-2016, 23:37 | Статус: Оффлайн

спасибо, хороший кино, бьютифул минд конечно по-лучше будет...
Информация
Посетители, находящиеся в группе Гости, не могут оставлять комментарии к данной публикации.