Панель пользователя
Регистрация

Воспользуйтесь социальными сетями для входа на https://freerutor.com

vk odnoklassniki facebook mailru yandex google
Рекомендуем
Document
Счетчик
Голосуй за нас
Популярное
загрузка...
Товары интернет магазина

Герника (2016) BDRip 720p | Лицензия

Герника (2016) BDRip 720p | Лицензия
Участники торрент обмена
Сидов Пиров Скачали
0 0 80
Характеристика
Размер Файлы
6.85 GB
Релиз группа
Поделиться раздачей
Фильмы (720,1080,Blu-Ray)
Наименование: Герника
Оригинальное наименование: Gernika
Произведено: Испания
Категория: мелодрама, военный
Режиссер постановщик: Кольдо Серра
В главных ролях: Берн Горман, Джеймс Д Арси, Джек Девенпорт, Мария Вальверде, Уго Сильва, Ирена Эсколар, Ингрид Гарсия Йонсон, Йоахим Пауль Ассбёк, Алехандро Гарсия, Барбара Гоэнага
Краткое описание: Романтическая драма о разочарованном и циничном американском журналисте, который оказывается единственным «вестником правды» из испанского города Герника, где зверствует гражданская война. В его работу и дальнейшую судьбу вмешивается местная республиканка Тереза, ответственная за цензуру исходящих новостей.
  • Видео данные: MPEG-4 AVC, 7647 Кбит/с, 1280x536
    Аудио данные: Русский (AC3, 6 ch, 384 Кбит/с), английский (AC3, 6 ch, 640 Кбит/с)
    Перевод: Профессиональный многоголосый (Лицензия)
    Субтитры: Русские, английские
    Продолжительность: 01:50:38
  • Герника (2016) BDRip 720p | Лицензия Герника (2016) BDRip 720p | Лицензия Герника (2016) BDRip 720p | Лицензия
  • Format : Matroska
    Format version : Version 4 / Version 2
    File size : 6.85 GiB
    Duration : 1h 50mn
    Overall bit rate : 8 847 Kbps
    Movie name : Герника. (Tonik)
    Encoded date : UTC 2017-01-17 06:14:16
    Writing application : mkvmerge v7.1.0 ('Good Love') 64bit built on Jul 27 2014 13:06:55
    Writing library : libebml v1.3.0 + libmatroska v1.4.1
    _STATISTICS_WRITING_APP : mkvmerge v7.1.0 ('Good Love') 64bit built on Jul 27 2014 13:06:55
    _STATISTICS_WRITING_DATE_UTC : 2017-01-17 06:14:16
    _STATISTICS_TAGS : BPS DURATION NUMBER_OF_FRAMES NUMBER_OF_BYTES
    DURATION : 01:50:50.272000000
    NUMBER_OF_FRAMES : 207821
    NUMBER_OF_BYTES : 319213056

    Video
    ID : 1
    Format : AVC
    Format/Info : Advanced Video Codec
    Format profile : High@L4.1
    Format settings, CABAC : Yes
    Format settings, ReFrames : 12 frames
    Codec ID : V_MPEG4/ISO/AVC
    Bit rate : 7 647 Kbps
    Width : 1 280 pixels
    Height : 536 pixels
    Display aspect ratio : 2.40:1
    Frame rate mode : Variable
    Original frame rate : 24.000 fps
    Color space : YUV
    Chroma subsampling : 4:2:0
    Bit depth : 8 bits
    Scan type : Progressive
    Writing library : x264 core 148 r2744kMod b97ae06
    Encoding settings : cabac=1 / ref=12 / deblock=1:-3:-3 / analyse=0x3:0x133 / me=umh / subme=11 / psy=1 / fade_compensate=0.00 / psy_rd=1.05:1.00 / mixed_ref=1 / me_range=32 / chroma_me=1 / trellis=2 / 8x8dct=1 / cqm=0 / deadzone=21,11 / fast_pskip=0 / chroma_qp_offset=-4 / threads=17 / lookahead_threads=2 / sliced_threads=0 / nr=0 / decimate=0 / interlaced=0 / bluray_compat=0 / constrained_intra=0 / bframes=8 / b_pyramid=2 / b_adapt=2 / b_bias=0 / direct=3 / weightb=1 / open_gop=0 / weightp=2 / keyint=250 / keyint_min=24 / scenecut=40 / intra_refresh=0 / rc_lookahead=60 / rc=crf / mbtree=0 / crf=16.5000 / qcomp=0.60 / qpmin=0 / qpmax=69 / qpstep=4 / vbv_maxrate=40000 / vbv_bufsize=30000 / crf_max=0.0 / nal_hrd=none / filler=0 / ip_ratio=1.40 / pb_ratio=1.30 / aq=1:1.00 / zones=3930,5058,crf=11.0/11081,12095,crf=11.0/17761,17817,crf=11.0/17958,18113,crf=11.0/19409,19472,crf=11.0/36511,37003,crf=11.0/94819,98501,crf=11.0/99073,100268,crf=11.0/107154,107828,crf=11.0/113087,113169,crf=11.0/113427,113513,crf=11.0/116787,117756,crf=11.0/119722,119739,crf=11.0/119893,119944,crf=11.0
    Language : English
    Default : Yes
    Forced : No
    _STATISTICS_WRITING_APP : mkvmerge v7.1.0 ('Good Love') 64bit built on Jul 27 2014 13:06:55
    _STATISTICS_WRITING_DATE_UTC : 2017-01-17 06:14:16
    _STATISTICS_TAGS : BPS DURATION NUMBER_OF_FRAMES NUMBER_OF_BYTES
    DURATION : 01:50:50.334000000
    NUMBER_OF_FRAMES : 159608
    NUMBER_OF_BYTES : 6500981873

    Audio #1
    ID : 2
    Format : AC-3
    Format/Info : Audio Coding 3
    Mode extension : CM (complete main)
    Format settings, Endianness : Big
    Codec ID : A_AC3
    Duration : 1h 50mn
    Bit rate mode : Constant
    Bit rate : 384 Kbps
    Channel(s) : 6 channels
    Channel positions : Front: L C R, Side: L R, LFE
    Sampling rate : 48.0 KHz
    Bit depth : 16 bits
    Compression mode : Lossy
    Stream size : 304 MiB (4%)
    Language : Russian
    Default : Yes
    Forced : No

    Audio #2
    ID : 3
    Format : AC-3
    Format/Info : Audio Coding 3
    Mode extension : CM (complete main)
    Format settings, Endianness : Big
    Codec ID : A_AC3
    Duration : 1h 50mn
    Bit rate mode : Constant
    Bit rate : 640 Kbps
    Channel(s) : 6 channels
    Channel positions : Front: L C R, Side: L R, LFE
    Sampling rate : 48.0 KHz
    Bit depth : 16 bits
    Compression mode : Lossy
    Stream size : 507 MiB (7%)
    Language : English
    Default : No
    Forced : No

    Text #1
    ID : 4
    Format : UTF-8
    Codec ID : S_TEXT/UTF8
    Codec ID/Info : UTF-8 Plain Text
    Language : Russian
    Default : No
    Forced : No

    Text #2
    ID : 5
    Format : UTF-8
    Codec ID : S_TEXT/UTF8
    Codec ID/Info : UTF-8 Plain Text
    Language : English
    Default : No
    Forced : No

    Menu
    00:00:00.000 : en:00:00:00.000
    00:06:57.042 : en:00:06:57.042
    00:15:43.500 : en:00:15:43.500
    00:24:56.625 : en:00:24:56.625
    00:31:38.708 : en:00:31:38.708
    00:43:28.458 : en:00:43:28.458
    00:51:43.958 : en:00:51:43.958
    01:00:13.542 : en:01:00:13.542
    01:10:32.667 : en:01:10:32.667
    01:19:28.542 : en:01:19:28.542
    01:25:53.667 : en:01:25:53.667
    01:33:01.583 : en:01:33:01.583
7.0 из 10
голосов: 3
/10
/10
foster720p 17-01-2017, 09:38
Информация
Посетители, находящиеся в группе Гости, не могут оставлять комментарии к данной публикации.