Панель пользователя
Регистрация

Воспользуйтесь социальными сетями для входа на https://freerutor.com

vk odnoklassniki facebook mailru yandex google
Рекомендуем
загрузка...
Счетчик
Голосуй за нас
Популярное
Товары интернет магазина

Мистериум. Тьма в бутылке (2016) HDRip-AVC

Мистериум. Тьма в бутылке (2016) HDRip-AVC
Участники торрент обмена
Сидов Пиров Скачали
4 0 345
Характеристика
Размер Файлы
1.94 GB
Релиз группа
Поделиться раздачей
Фильмы (AVC)
Наименование: Мистериум. Тьма в бутылке
Оригинальное наименование: Flaskepost fra P
Категория: Триллер, драма
Произведено: Дания, Германия, Швеция, Норвегия / Film i Väst, TV2 Danmark, TV4, ZDF Enterprises
Режиссер постановщик: Ганс Петтер Моланд
В главных ролях: Николай Ли Каас, Фарес Фарес, Пол Сверре Валхейм Хаген, Якоб Ульрик Ломанн, Amanda Collin, Джохэнн Луиз Шмидт, Якоб Офтебро, Сигне Анастассиа Маннов, Сёрен Пильмарк, Михаэль Броструп
Краткое описание: Выброшенная на берег моря бутылка с леденящим душу посланием, написанным восемь лет назад, привлекает внимание особого отдела полиции Копенгагена. За расследование берутся комиссар Карл Мёрк и его помощник. Они выходят на след убийцы-психопата и раскрывают жуткую историю похищенных детей, об исчезновении которых никто не заявлял…
  • Видео данные: MPEG-4 AVC, 1711 Кбит/с, 1024x436
    Аудио данные: Русский, французский (AC3, 6 ch, 384 Кбит/с)
    Перевод: Профессиональный многоголосый [GreenРай Studio]
    Субтитры: Русские, французские
    Продолжительность: 01:51:45
  • Мистериум. Тьма в бутылке (2016) HDRip-AVC Мистериум. Тьма в бутылке (2016) HDRip-AVC Мистериум. Тьма в бутылке (2016) HDRip-AVC
  • General
    Unique ID : 226335892860418184287368129162761631312 (0xAA46B51536C92825924C882FD7FA7650)
    Complete name : E:Misteriym.Tjma.v.bytulke.2O16.P.HDRip.AVC.ExKinoRay.mkv
    Format : Matroska
    Format version : Version 2
    File size : 1.94 GiB
    Duration : 1 h 51 min
    Overall bit rate : 2 479 kb/s
    Movie name : Flaskepost fra P 2016 from ExKinoRay
    Encoded date : UTC 2016-08-16 02:24:27
    Writing application : mkvmerge v7.6.0 ('Garden of Dreams') 32bit built on Feb 11 2015 00:18:47
    Writing library : libebml v1.3.1 + libmatroska v1.4.2

    Video
    ID : 1
    Format : AVC
    Format/Info : Advanced Video Codec
    Format profile : High@L4.1
    Format settings, CABAC : Yes
    Format settings, ReFrames : 13 frames
    Codec ID : V_MPEG4/ISO/AVC
    Duration : 1 h 51 min
    Bit rate : 1 711 kb/s
    Width : 1 024 pixels
    Height : 436 pixels
    Display aspect ratio : 2.35:1
    Frame rate mode : Constant
    Frame rate : 23.976 (24000/1001) FPS
    Original frame rate : 23.976 (23976/1000) FPS
    Color space : YUV
    Chroma subsampling : 4:2:0
    Bit depth : 8 bits
    Scan type : Progressive
    Bits/(Pixel*Frame) : 0.160
    Stream size : 1.30 GiB (67%)
    Title : Enigma
    Writing library : x264 core 144 r2525 40bb568
    Encoding settings : cabac=1 / ref=13 / deblock=1:-2:-2 / analyse=0x3:0x113 / me=umh / subme=10 / psy=1 / psy_rd=1.05:0.10 / mixed_ref=1 / me_range=32 / chroma_me=1 / trellis=2 / 8x8dct=1 / cqm=0 / deadzone=21,11 / fast_pskip=0 / chroma_qp_offset=-3 / threads=12 / lookahead_threads=2 / sliced_threads=0 / nr=0 / decimate=0 / interlaced=0 / bluray_compat=0 / constrained_intra=0 / bframes=9 / b_pyramid=2 / b_adapt=2 / b_bias=0 / direct=3 / weightb=1 / open_gop=0 / weightp=2 / keyint=240 / keyint_min=23 / scenecut=40 / intra_refresh=0 / rc=2pass / mbtree=0 / bitrate=1711 / ratetol=1.0 / qcomp=0.60 / qpmin=0 / qpmax=51 / qpstep=4 / cplxblur=20.0 / qblur=0.5 / ip_ratio=1.40 / pb_ratio=1.30 / aq=1:1.00
    Default : Yes
    Forced : No
    Color range : Limited
    Color primaries : BT.709
    Transfer characteristics : BT.709
    Matrix coefficients : BT.709

    Audio #1
    ID : 2
    Format : AC-3
    Format/Info : Audio Coding 3
    Mode extension : CM (complete main)
    Format settings, Endianness : Big
    Codec ID : A_AC3
    Duration : 1 h 51 min
    Bit rate mode : Constant
    Bit rate : 384 kb/s
    Channel(s) : 6 channels
    Channel positions : Front: L C R, Side: L R, LFE
    Sampling rate : 48.0 kHz
    Frame rate : 31.250 FPS (1536 spf)
    Compression mode : Lossy
    Stream size : 307 MiB (15%)
    Title : MVO (GreenРай Studio)
    Language : Russian
    Default : No
    Forced : No

    Audio #2
    ID : 3
    Format : AC-3
    Format/Info : Audio Coding 3
    Mode extension : CM (complete main)
    Format settings, Endianness : Big
    Codec ID : A_AC3
    Duration : 1 h 51 min
    Bit rate mode : Constant
    Bit rate : 384 kb/s
    Channel(s) : 6 channels
    Channel positions : Front: L C R, Side: L R, LFE
    Sampling rate : 48.0 kHz
    Frame rate : 31.250 FPS (1536 spf)
    Compression mode : Lossy
    Stream size : 307 MiB (15%)
    Language : French
    Default : No
    Forced : No

    Text #1
    ID : 4
    Format : UTF-8
    Codec ID : S_TEXT/UTF8
    Codec ID/Info : UTF-8 Plain Text
    Title : Forced
    Language : Russian
    Default : Yes
    Forced : No

    Text #2
    ID : 5
    Format : UTF-8
    Codec ID : S_TEXT/UTF8
    Codec ID/Info : UTF-8 Plain Text
    Title : Forced
    Language : French
    Default : No
    Forced : No

    Text #3
    ID : 6
    Format : UTF-8
    Codec ID : S_TEXT/UTF8
    Codec ID/Info : UTF-8 Plain Text
    Language : French
    Default : No
    Forced : No

    Menu
    00:00:00.000 : :Chapter 01
    00:12:06.183 : :Chapter 02
    00:20:58.090 : :Chapter 03
    00:33:08.111 : :Chapter 04
    00:41:30.321 : :Chapter 05
    00:51:43.558 : :Chapter 06
    01:04:51.178 : :Chapter 07
    01:15:08.462 : :Chapter 08
    01:23:30.171 : :Chapter 09
    01:30:15.326 : :Chapter 10
    01:38:21.353 : :Chapter 11
    01:47:24.855 : :Chapter 12
10.0 из 10
голосов: 3
/10
/10
Раздачу отредактировал: grab777 - 24-12-2016, 08:25
По причине: (Замена WEB-DL на BDRip + Без рекламы!)
vamo 24-12-2016, 08:25
Информация
Посетители, находящиеся в группе Гости, не могут оставлять комментарии к данной публикации.