Панель пользователя
Регистрация

Воспользуйтесь социальными сетями для входа на https://freerutor.com

vk odnoklassniki facebook mailru yandex google
Рекомендуем
Document
Счетчик
Голосуй за нас
Популярное
загрузка...
Товары интернет магазина

Налетчики (2016) BDRip 1080p | iTunes

Налетчики (2016) BDRip 1080p | iTunes
Участники торрент обмена
Сидов Пиров Скачали
18 0 1117
Характеристика
Размер Файлы
9.61 GB
Релиз группа
Поделиться раздачей
Фильмы (720,1080,Blu-Ray)
Наименование: Налетчики
Оригинальное наименование: Marauders
Произведено: Канада, 4th Wall Entertainment, Emmett/Furla Films, Grindstone Entertainment Group, Lionsgate Home Entertainment
Категория: боевик
Режиссер постановщик: Стивен С. Миллер
В главных ролях: Брюс Уиллис, Кристофер Мелони, Дэйв Батиста, Эдриан Гренье, Лидия Халл, Тайлер Джон Олсон, Кристофер Роб Бауэн, Ричи Чэнс, Chris Hill, Дэнни А. Абекейзер
Краткое описание: История об агенте ФБР, который нападает на след преступников, ограбивших банк и отдавших все украденные деньги на благотворительные нужды. Чем дальше продвигается расследование, тем больше главный герой убеждается в том, что у владельца банка имеются собственные секреты.
  • Видео данные: MPEG-4 AVC, 10.9 Mбит/с, 1920x804
    Аудио данные: Русский (AC3, 6 ch, 384 Кбит/с), английский (DTS, 6 ch, 1510 Кбит/с)
    Продолжительность: 01:47:07
    Перевод: Дублированный (iTunes)
    Субтитры: Русские, английские
  • Налетчики (2016) BDRip 1080p | iTunes Налетчики (2016) BDRip 1080p | iTunes Налетчики (2016) BDRip 1080p | iTunes
  • General
    Unique ID : 212482929345441944569504670170865432937 (0x9FDAB93FCCA05E1383642A61F36F7969)
    Complete name : F:VideoMarauders.2016.D.BDRip.1080p.ExKinoRay.mkv
    Format : Matroska
    Format version : Version 4 / Version 2
    File size : 9.61 GiB
    Duration : 1 h 47 min
    Overall bit rate : 12.8 Mb/s
    Encoded date : UTC 2017-04-19 23:35:50
    Writing application : mkvmerge v10.0.0 ('To Drown In You') 64bit
    Writing library : libebml v1.3.4 + libmatroska v1.4.5

    Video
    ID : 1
    Format : AVC
    Format/Info : Advanced Video Codec
    Format profile : High@L4.1
    Format settings, CABAC : Yes
    Format settings, ReFrames : 5 frames
    Codec ID : V_MPEG4/ISO/AVC
    Duration : 1 h 47 min
    Bit rate : 10.9 Mb/s
    Width : 1 920 pixels
    Height : 804 pixels
    Display aspect ratio : 2.40:1
    Frame rate mode : Constant
    Frame rate : 23.976 (24000/1001) FPS
    Color space : YUV
    Chroma subsampling : 4:2:0
    Bit depth : 8 bits
    Scan type : Progressive
    Bits/(Pixel*Frame) : 0.296
    Stream size : 8.19 GiB (85%)
    Writing library : x264 core 148 r2699+6+41 29a38aa Yuuki [8-bit@4:2:0 X86_64][GCC 5.3.0]
    Encoding settings : cabac=1 / ref=5 / deblock=1:-3:-3 / analyse=0x3:0x113 / me=umh / subme=11 / psy=1 / fade_compensate=0.00 / psy_rd=1.00:0.05 / mixed_ref=1 / me_range=32 / chroma_me=1 / trellis=2 / 8x8dct=1 / cqm=0 / deadzone=21,11 / fast_pskip=0 / chroma_qp_offset=-2 / threads=32 / lookahead_threads=5 / sliced_threads=0 / nr=0 / decimate=1 / interlaced=0 / bluray_compat=0 / constrained_intra=0 / fgo=0 / bframes=8 / b_pyramid=2 / b_adapt=2 / b_bias=0 / direct=3 / weightb=1 / open_gop=0 / weightp=2 / keyint=250 / keyint_min=23 / scenecut=40 / intra_refresh=0 / rc_lookahead=40 / rc=crf / mbtree=0 / crf=18.4000 / qcomp=0.60 / qpmin=0:0:0 / qpmax=69:69:69 / qpstep=4 / vbv_maxrate=50000 / vbv_bufsize=40000 / crf_max=0.0 / nal_hrd=none / filler=0 / ip_ratio=1.40 / pb_ratio=1.30 / aq=3:0.90
    Language : English
    Default : Yes
    Forced : No

    Audio #1
    ID : 2
    Format : AC-3
    Format/Info : Audio Coding 3
    Format settings, Endianness : Big
    Codec ID : A_AC3
    Duration : 1 h 47 min
    Bit rate mode : Constant
    Bit rate : 384 kb/s
    Channel(s) : 6 channels
    Channel positions : Front: L C R, Side: L R, LFE
    Sampling rate : 48.0 kHz
    Frame rate : 31.250 FPS (1536 spf)
    Bit depth : 16 bits
    Compression mode : Lossy
    Stream size : 294 MiB (3%)
    Title : iTunes
    Language : Russian
    Service kind : Complete Main
    Default : Yes
    Forced : No

    Audio #2
    ID : 3
    Format : DTS
    Format/Info : Digital Theater Systems
    Mode : 16
    Format settings, Endianness : Big
    Codec ID : A_DTS
    Duration : 1 h 47 min
    Bit rate mode : Constant
    Bit rate : 1 509 kb/s
    Channel(s) : 6 channels
    Channel positions : Front: L C R, Side: L R, LFE
    Sampling rate : 48.0 kHz
    Frame rate : 93.750 FPS (512 spf)
    Bit depth : 24 bits
    Compression mode : Lossy
    Stream size : 1.13 GiB (12%)
    Title : Original
    Language : English
    Default : No
    Forced : No

    Text #1
    ID : 4
    Format : UTF-8
    Codec ID : S_TEXT/UTF8
    Codec ID/Info : UTF-8 Plain Text
    Duration : 1 h 39 min
    Bit rate : 104 b/s
    Count of elements : 1409
    Stream size : 76.0 KiB (0%)
    Title : Full
    Language : Russian
    Default : No
    Forced : No

    Text #2
    ID : 5
    Format : UTF-8
    Codec ID : S_TEXT/UTF8
    Codec ID/Info : UTF-8 Plain Text
    Duration : 1 h 39 min
    Bit rate : 87 b/s
    Count of elements : 1540
    Stream size : 63.3 KiB (0%)
    Title : Full
    Language : English
    Default : No
    Forced : No

    Text #3
    ID : 6
    Format : UTF-8
    Codec ID : S_TEXT/UTF8
    Codec ID/Info : UTF-8 Plain Text
    Duration : 1 h 39 min
    Bit rate : 69 b/s
    Count of elements : 1540
    Stream size : 50.7 KiB (0%)
    Title : SDH
    Language : English
    Default : No
    Forced : No

    Menu
    00:00:00.000 : en:00:00:00.000
    00:05:19.402 : en:00:05:19.402
    00:11:57.717 : en:00:11:57.717
    00:17:46.107 : en:00:17:46.107
    00:24:42.648 : en:00:24:42.648
    00:30:33.874 : en:00:30:33.874
    00:39:07.679 : en:00:39:07.679
    00:46:14.981 : en:00:46:14.981
    00:51:49.356 : en:00:51:49.356
    00:55:58.272 : en:00:55:58.272
    01:02:08.016 : en:01:02:08.016
    01:09:21.699 : en:01:09:21.699
    01:16:38.594 : en:01:16:38.594
    01:22:48.839 : en:01:22:48.839
    01:28:22.172 : en:01:28:22.172
    01:34:08.351 : en:01:34:08.351
7.9 из 10
голосов: 14
/10
/10
Раздачу отредактировал: Alik - 20-04-2017, 08:05
По причине: (iTunes)
foster720p 20-04-2017, 08:05

zakaz4uck | 5-09-2016, 20:58 | Статус: Оффлайн

Снова примерно с 18:30 мин. нет перевода!!! Почему не указываете?!

zakaz4uck | 7-07-2016, 19:41 | Статус: Оффлайн

Почему не говорите о частичном отсутствии перевода?!

Gigan | 6-07-2016, 15:34 | Статус: Оффлайн

Marauders 2016
IMDB 5.5/10
Информация
Посетители, находящиеся в группе Гости, не могут оставлять комментарии к данной публикации.