Панель пользователя
Регистрация

Воспользуйтесь социальными сетями для входа на https://freerutor.com

vk odnoklassniki facebook mailru yandex google
Рекомендуем
Document
Счетчик
Голосуй за нас
Популярное
загрузка...
Товары интернет магазина

Биркебейнеры (2016) BDRip 1080p

Биркебейнеры (2016) BDRip 1080p
Участники торрент обмена
Сидов Пиров Скачали
21 2 529
Характеристика
Размер Файлы
6.07 GB
Поделиться раздачей
Фильмы (720,1080,Blu-Ray)
Наименование: Биркебейнеры
Оригинальное наименование: Birkebeinerne
Категория: Боевик, драма, приключения
Произведено: Норвегия, Paradox Film 3
Режиссер постановщик: Нильс Гёуп
В главных ролях: Якоб Офтебро, Кристофер Хивью, Пол Сверре Валхейм Хаген, Торбьорн Харр, Беньямин Хельстад, Николай Ли Кос, Ане Ульмуэн Эверли, Стиг Хенрик Хофф, Теа Софи Лок Нэсс, Андерс Дальберг, Торкель Доммерснес Сульдаль
Краткое описание: 1204 год, Норвегию раздирает гражданская война. Незаконнорожденного сына короля Хокона III Сверрессона и Инги из Вартейга хранят в глубокой тайне. Мальчик был внебрачным сыном короля и родился после его смерти, что спровоцировало кровавую междоусобицу. Биркебейнеры (ополчение, созданное его дедом, королем Сверре Сигурдсоном) признали мальчика наследником трона Норвегии. Однако католические священники объявили охоту на ребенка с целью его уничтожения.
  • Видео данные: MPEG-4 AVC, 7726 kb/s, 1920x816
    Аудио данные: Russian: AC3, 384 kb/s (6 ch) / Norwegian: AC3, 640 kb/s (6 ch)
    Перевод: Профессиональный (многоголосый) Официальный без рекламы
    Субтитры: Английские, норвежские
    Продолжительность: 01:39:24
  • Биркебейнеры (2016) BDRip 1080p Биркебейнеры (2016) BDRip 1080p Биркебейнеры (2016) BDRip 1080p
  • Общее
    Уникальный идентификатор : 236474407634033674558162425927900938924 (0xB1E7507448DA56B9A2B04038651142AC)
    Полное имя : D:\загрузки\Birkebeinerne.2016.P.BDRip.1080p.mkv
    Формат : Matroska
    Версия формата : Version 2
    Размер файла : 6,07 Гбайт
    Продолжительность : 1 ч. 39 м.
    Общий поток : 8707 Кбит/сек
    Название фильма : Биркебейнеры.2016.Rip by: ollan
    Дата кодирования : UTC 2017-05-13 20:24:26
    Программа кодирования : mkvmerge v7.8.0 ('River Man') 32bit built on Apr 3 2015 12:11:22
    Библиотека кодирования : libebml v1.3.1 + libmatroska v1.4.2

    Видео
    Идентификатор : 1
    Формат : AVC
    Формат/Информация : Advanced Video Codec
    Профиль формата : High@L4.1
    Параметр CABAC формата : Да
    Параметр ReFrames формата : 5 кадров
    Идентификатор кодека : V_MPEG4/ISO/AVC
    Продолжительность : 1 ч. 39 м.
    Битрейт : 7726 Кбит/сек
    Ширина : 1920 пикселей
    Высота : 816 пикселей
    Соотношение сторон : 2,35:1
    Режим частоты кадров : Постоянный
    Частота кадров : 24,000 кадра/сек
    Цветовое пространство : YUV
    Субдискретизация насыщенности : 4:2:0
    Битовая глубина : 8 бит
    Тип развёртки : Прогрессивная
    Бит/(Пиксели*Кадры) : 0.205
    Размер потока : 5,24 Гбайт (86%)
    Библиотека кодирования : x264 core 146 r2538 121396c
    Настройки программы : cabac=1 / ref=5 / deblock=1:-3:-3 / analyse=0x3:0x133 / me=umh / subme=11 / psy=1 / psy_rd=1.03:0.07 / mixed_ref=1 / me_range=48 / chroma_me=1 / trellis=2 / 8x8dct=1 / cqm=0 / deadzone=21,11 / fast_pskip=0 / chroma_qp_offset=-3 / threads=12 / lookahead_threads=2 / sliced_threads=0 / nr=0 / decimate=0 / interlaced=0 / bluray_compat=0 / constrained_intra=0 / bframes=9 / b_pyramid=2 / b_adapt=2 / b_bias=0 / direct=3 / weightb=1 / open_gop=0 / weightp=2 / keyint=240 / keyint_min=23 / scenecut=40 / intra_refresh=0 / rc_lookahead=60 / rc=2pass / mbtree=1 / bitrate=7726 / ratetol=1.0 / qcomp=0.60 / qpmin=0 / qpmax=69 / qpstep=4 / cplxblur=20.0 / qblur=0.5 / vbv_maxrate=50000 / vbv_bufsize=62500 / nal_hrd=none / filler=0 / ip_ratio=1.40 / aq=1:1.00
    Язык : Norwegian
    Default : Да
    Forced : Нет

    Аудио #1
    Идентификатор : 2
    Формат : AC-3
    Формат/Информация : Audio Coding 3
    Расширение режима : CM (complete main)
    Параметр Endianness формата : Big
    Идентификатор кодека : A_AC3
    Продолжительность : 1 ч. 39 м.
    Вид битрейта : Постоянный
    Битрейт : 384 Кбит/сек
    Каналы : 6 каналов
    Расположение каналов : Front: L C R, Side: L R, LFE
    Частота : 48,0 КГц
    Частота кадров : 31,250 кадров/сек (1536 spf)
    Битовая глубина : 16 бит
    Метод сжатия : С потерями
    Размер потока : 274 Мбайт (4%)
    Язык : Russian
    Default : Да
    Forced : Нет

    Аудио #2
    Идентификатор : 3
    Формат : AC-3
    Формат/Информация : Audio Coding 3
    Расширение режима : CM (complete main)
    Параметр Endianness формата : Big
    Идентификатор кодека : A_AC3
    Продолжительность : 1 ч. 39 м.
    Вид битрейта : Постоянный
    Битрейт : 640 Кбит/сек
    Каналы : 6 каналов
    Расположение каналов : Front: L C R, Side: L R, LFE
    Частота : 48,0 КГц
    Частота кадров : 31,250 кадров/сек (1536 spf)
    Битовая глубина : 16 бит
    Метод сжатия : С потерями
    Размер потока : 457 Мбайт (7%)
    Язык : Norwegian
    Default : Нет
    Forced : Нет

    Текст #1
    Идентификатор : 4
    Формат : UTF-8
    Идентификатор кодека : S_TEXT/UTF8
    Идентификатор кодека/Информация : UTF-8 Plain Text
    Язык : English
    Default : Нет
    Forced : Нет

    Текст #2
    Идентификатор : 5
    Формат : UTF-8
    Идентификатор кодека : S_TEXT/UTF8
    Идентификатор кодека/Информация : UTF-8 Plain Text
    Язык : Norwegian
    Default : Нет
    Forced : Нет
7.7 из 10
голосов: 10
/10
/10
karta 13-05-2017, 23:31
Информация
Посетители, находящиеся в группе Гости, не могут оставлять комментарии к данной публикации.