Панель пользователя
Регистрация

Воспользуйтесь социальными сетями для входа на https://freerutor.com

vk odnoklassniki facebook mailru yandex google
Рекомендуем
Document
Счетчик
Голосуй за нас
Товары интернет магазина

Биркебейнеры (2016) BDRip 720p

Биркебейнеры (2016) BDRip 720p
Участники торрент обмена
Сидов Пиров Скачали
6 0 3243
Характеристика
Размер Файлы
4.13 GB
Поделиться раздачей
Фильмы (720,1080,Blu-Ray)
Наименование: Биркебейнеры
Оригинальное наименование: Birkebeinerne
Категория: Боевик, драма, приключения
Произведено: Норвегия, Paradox Film 3
Режиссер постановщик: Нильс Гёуп
В главных ролях: Якоб Офтебро, Кристофер Хивью, Пол Сверре Хаген, Торбьорн Харр, Беньямин Хельстад, Николай Ли Кос, Ане Ульмуэн Эверли, Стиг Хенрик Хофф, Теа Софи Лок Нэсс, Андерс Дальберг, Торкель Доммерснес Сульдаль
Краткое описание: 1204 год, Норвегию раздирает гражданская война. Незаконнорожденного сына короля Хокона III Сверрессона и Инги из Вартейга хранят в глубокой тайне. Мальчик был внебрачным сыном короля и родился после его смерти, что спровоцировало кровавую междоусобицу. Биркебейнеры (ополчение, созданное его дедом, королем Сверре Сигурдсоном) признали мальчика наследником трона Норвегии. Однако католические священники объявили охоту на ребенка с целью его уничтожения.
  • Видео данные: MPEG-4 AVC, 4786 Кбит/с, 1280x544
    Аудио данные: Russian: AC3, 384 kb/s (6 ch) / Norwegian: AC3, 640 kb/s (6 ch)
    Перевод: Профессиональный (многоголосый) Официальный без рекламы
    Субтитры: Английские
    Продолжительность: 01:39:24
  • Биркебейнеры (2016) BDRip 720p Биркебейнеры (2016) BDRip 720p Биркебейнеры (2016) BDRip 720p
  • Общее
    Уникальный идентификатор : 184624482479224913194299232873933200474 (0x8AE561C5FE0AFD3F9699BA59EE505C5A)
    Полное имя : D:\загрузки\Birkebeinerne.2016.P.BDRip.720p.mkv
    Формат : Matroska
    Версия формата : Version 2
    Размер файла : 4,13 Гбайт
    Продолжительность : 1 ч. 39 м.
    Общий поток : 5928 Кбит/сек
    Дата кодирования : UTC 2017-05-12 01:35:15
    Программа кодирования : mkvmerge v7.8.0 ('River Man') 32bit built on Apr 3 2015 12:11:22
    Библиотека кодирования : libebml v1.3.1 + libmatroska v1.4.2

    Видео
    Идентификатор : 1
    Формат : AVC
    Формат/Информация : Advanced Video Codec
    Профиль формата : High@L4.1
    Параметр CABAC формата : Да
    Параметр ReFrames формата : 12 кадров
    Идентификатор кодека : V_MPEG4/ISO/AVC
    Продолжительность : 1 ч. 39 м.
    Битрейт : 4786 Кбит/сек
    Ширина : 1280 пикселей
    Высота : 544 пикселя
    Соотношение сторон : 2,35:1
    Режим частоты кадров : Постоянный
    Частота кадров : 24,000 кадра/сек
    Цветовое пространство : YUV
    Субдискретизация насыщенности : 4:2:0
    Битовая глубина : 8 бит
    Тип развёртки : Прогрессивная
    Бит/(Пиксели*Кадры) : 0.286
    Размер потока : 3,34 Гбайт (81%)
    Библиотека кодирования : x264 core 142 r2431+42 c69a006 tMod [8-bit@all X86_64]
    Настройки программы : cabac=1 / ref=12 / deblock=1:-3:-3 / analyse=0x3:0x133 / me=umh / subme=11 / psy=1 / fade_compensate=0.00 / psy_rd=1.05:1.00 / mixed_ref=1 / me_range=32 / chroma_me=1 / trellis=2 / 8x8dct=1 / cqm=0 / deadzone=21,11 / fast_pskip=0 / chroma_qp_offset=-4 / threads=12 / lookahead_threads=2 / sliced_threads=0 / nr=0 / decimate=0 / interlaced=0 / bluray_compat=0 / constrained_intra=0 / fgo=0 / bframes=8 / b_pyramid=2 / b_adapt=2 / b_bias=0 / direct=3 / weightb=1 / open_gop=0 / weightp=2 / keyint=240 / keyint_min=24 / scenecut=40 / intra_refresh=0 / rc_lookahead=60 / rc=crf / mbtree=0 / crf=18.0000 / qcomp=0.60 / qpmin=0:0:0 / qpmax=69:69:69 / qpstep=4 / vbv_maxrate=40000 / vbv_bufsize=30000 / crf_max=0.0 / nal_hrd=none / filler=0 / ip_ratio=1.40 / pb_ratio=1.30 / aq=1:1.00 / aq-sensitivity=10.00 / aq-factor=1.00:1.00:1.00 / aq2=0 / aq3=0
    Язык : Norwegian Nynorsk
    Default : Да
    Forced : Нет

    Аудио #1
    Идентификатор : 2
    Формат : AC-3
    Формат/Информация : Audio Coding 3
    Расширение режима : CM (complete main)
    Параметр Endianness формата : Big
    Идентификатор кодека : A_AC3
    Продолжительность : 1 ч. 39 м.
    Вид битрейта : Постоянный
    Битрейт : 384 Кбит/сек
    Каналы : 6 каналов
    Расположение каналов : Front: L C R, Side: L R, LFE
    Частота : 48,0 КГц
    Частота кадров : 31,250 кадров/сек (1536 spf)
    Битовая глубина : 16 бит
    Метод сжатия : С потерями
    Размер потока : 274 Мбайт (6%)
    Default : Да
    Forced : Нет

    Аудио #2
    Идентификатор : 3
    Формат : AC-3
    Формат/Информация : Audio Coding 3
    Расширение режима : CM (complete main)
    Параметр Endianness формата : Big
    Идентификатор кодека : A_AC3
    Продолжительность : 1 ч. 39 м.
    Вид битрейта : Постоянный
    Битрейт : 640 Кбит/сек
    Каналы : 6 каналов
    Расположение каналов : Front: L C R, Side: L R, LFE
    Частота : 48,0 КГц
    Частота кадров : 31,250 кадров/сек (1536 spf)
    Битовая глубина : 16 бит
    Метод сжатия : С потерями
    Размер потока : 457 Мбайт (11%)
    Язык : Norwegian
    Default : Нет
    Forced : Нет

    Текст
    Идентификатор : 4
    Формат : UTF-8
    Идентификатор кодека : S_TEXT/UTF8
    Идентификатор кодека/Информация : UTF-8 Plain Text
    Язык : English
    Default : Нет
    Forced : Нет

    Меню
    00:00:00.000 : en:Chapter 01
    00:09:59.791 : en:Chapter 02
    00:19:59.750 : en:Chapter 03
    00:29:59.666 : en:Chapter 04
    00:39:59.750 : en:Chapter 05
    00:49:59.833 : en:Chapter 06
    00:59:59.708 : en:Chapter 07
    01:09:59.708 : en:Chapter 08
    01:19:59.916 : en:Chapter 09
    01:29:59.791 : en:Chapter 10
    01:39:24.291 : en:Chapter 11
8.3 из 10
голосов: 8
karta 12-05-2017, 04:39
Информация
Посетители, находящиеся в группе Гости, не могут оставлять комментарии к данной публикации.