Панель пользователя
Регистрация

Воспользуйтесь социальными сетями для входа на https://freerutor.com

vk odnoklassniki facebook mailru yandex google
Рекомендуем
Document
Счетчик
Голосуй за нас
Популярное
загрузка...
Товары интернет магазина
загрузка...

Азиатский связной (2016) BDRip 1080p

Азиатский связной (2016) BDRip 1080p
Участники торрент обмена
Сидов Пиров Скачали
4 1 274
Характеристика
Размер Файлы
7.80 GB
Релиз группа
Поделиться раздачей
Фильмы (720,1080,Blu-Ray)
Наименование: Азиатский связной
Оригинальное наименование: The Asian Connection
Категория: Боевик
Произведено: Таиланд, Kaos Entertainment Inc., Parkside Pictures, Tadross Media Group
Режиссер постановщик: Дэниэл Дзирилли
В главных ролях: Стивен Сигал, Майкл Джей Уайт, Pim Bubear, Рон Смуренбург, Дэймон Уитакер, Сахайак Бунсанакит, Джон Ли, Дин Александру, Натали Лоренс, Байрон Гибсон
Краткое описание: Американские эмигранты, Джек и Сэм, грабят банки в Юго-Восточной Азии и случайно крадут деньги принадлежащие наркобарону, после чего они стали объектом мести местной преступной группировки. Вскоре Сэма убивают и Джек разыскивает Пом, любовь всей жизни, вместе они становятся современными Бонни и Клайд, в одиночку пытающиеся противостоять банде наркоторговцев.
  • Видео данные: MPEG-4 AVC, 10519 Кбит/с, 1920x856
    Аудио данные: Русский (AC3, 2 ch, 192 Кбит/с), английский (DTS, 6 ch, 1510 Кбит/с)
    Перевод: Любительский многоголосый
    Субтитры: Английские
    Продолжительность: 01:41:35
  • Азиатский связной (2016) BDRip 1080p Азиатский связной (2016) BDRip 1080p Азиатский связной (2016) BDRip 1080p
  • Полное имя : D:\The.Asian.Connection.2016.x264.BDRip.1080p.NovaLan.mkv
    Формат : Matroska
    Версия формата : Version 4 / Version 2
    Размер файла : 7,80 Гбайт
    Продолжительность : 1 ч. 31 м.
    Общий поток : 12,2 Мбит/сек
    Название фильма : The Asian Connection 2016 - NovaLan
    Дата кодирования : UTC 2017-03-23 20:27:15
    Программа кодирования : mkvmerge v6.9.1 ('Blue Panther') 64bit built on Apr 18 2014 18:23:38
    Библиотека кодирования : libebml v1.3.0 + libmatroska v1.4.1

    Видео
    Идентификатор : 1
    Формат : AVC
    Формат/Информация : Advanced Video Codec
    Профиль формата : High@L4.1
    Параметр CABAC формата : Да
    Параметр ReFrames формата : 4 кадра
    Идентификатор кодека : V_MPEG4/ISO/AVC
    Продолжительность : 1 ч. 31 м.
    Битрейт : 10,5 Мбит/сек
    Ширина : 1920 пикселей
    Высота : 856 пикселей
    Соотношение сторон : 2,25:1
    Частота кадров : 23,976 кадра/сек
    Цветовое пространство : YUV
    Субдискретизация насыщенности : 4:2:0
    Битовая глубина : 8 бит
    Тип развёртки : Прогрессивная
    Бит/(Пиксели*Кадры) : 0.267
    Размер потока : 6,56 Гбайт (84%)
    Заголовок : Sergei7721
    Библиотека кодирования : x264 core 148 r2762 90a61ec
    Настройки программы : cabac=1 / ref=4 / deblock=1:-1:-1 / analyse=0x3:0x113 / me=umh / subme=11 / psy=1 / psy_rd=1.00:0.20 / mixed_ref=1 / me_range=24 / chroma_me=1 / trellis=2 / 8x8dct=1 / cqm=0 / deadzone=21,11 / fast_pskip=0 / chroma_qp_offset=-3 / threads=12 / lookahead_threads=1 / sliced_threads=0 / nr=0 / decimate=0 / interlaced=0 / bluray_compat=0 / constrained_intra=0 / bframes=6 / b_pyramid=2 / b_adapt=2 / b_bias=0 / direct=3 / weightb=1 / open_gop=0 / weightp=2 / keyint=240 / keyint_min=23 / scenecut=40 / intra_refresh=0 / rc_lookahead=40 / rc=2pass / mbtree=0 / bitrate=10519 / ratetol=1.0 / qcomp=0.60 / qpmin=0 / qpmax=69 / qpstep=4 / cplxblur=20.0 / qblur=0.5 / vbv_maxrate=50000 / vbv_bufsize=62500 / nal_hrd=none / filler=0 / ip_ratio=1.40 / pb_ratio=1.30 / aq=1:1.00
    Default : Да
    Forced : Нет

    Аудио #1
    Идентификатор : 2
    Формат : AC-3
    Формат/Информация : Audio Coding 3
    Расширение режима : CM (complete main)
    Параметр Endianness формата : Big
    Идентификатор кодека : A_AC3
    Продолжительность : 1 ч. 31 м.
    Вид битрейта : Постоянный
    Битрейт : 192 Кбит/сек
    Каналы : 2 канала
    Расположение каналов : Front: L R
    Частота : 48,0 КГц
    Битовая глубина : 16 бит
    Метод сжатия : С потерями
    Размер потока : 126 Мбайт (2%)
    Язык : Russian
    Default : Да
    Forced : Нет

    Аудио #2
    Идентификатор : 3
    Формат : DTS
    Формат/Информация : Digital Theater Systems
    Идентификатор кодека : A_DTS
    Продолжительность : 1 ч. 31 м.
    Вид битрейта : Постоянный
    Битрейт : 1510 Кбит/сек
    Каналы : 6 каналов
    Расположение каналов : Front: L C R, Side: L R, LFE
    Частота : 48,0 КГц
    Битовая глубина : 24 бит
    Метод сжатия : С потерями
    Размер потока : 987 Мбайт (12%)
    Язык : English
    Default : Нет
    Forced : Нет

    Текст
    Идентификатор : 4
    Формат : UTF-8
    Идентификатор кодека : S_TEXT/UTF8
    Идентификатор кодека/Информация : UTF-8 Plain Text
    Язык : English
    Default : Нет
    Forced : Нет

    Меню
    00:00:00.000 : en:00:00:00.000
    00:09:57.346 : en:00:09:57.346
    00:29:32.729 : en:00:29:32.729
    00:36:05.037 : en:00:36:05.037
    00:41:42.708 : en:00:41:42.708
    00:52:40.740 : en:00:52:40.740
    01:05:59.538 : en:01:05:59.538
    01:12:00.691 : en:01:12:00.691
    01:20:19.356 : en:01:20:19.356
    01:29:46.422 : en:01:29:46.422
    01:31:23.895 : en:01:31:23.895
5.3 из 10
голосов: 6
/10
/10
Раздачу отредактировал: VlaDyka - 26-03-2017, 06:32
По причине: (Замена WEB-DL 1080p на BDRip 1080p)
SuslOFF 26-03-2017, 06:32

cummins | 17-05-2016, 04:29 | Статус: Оффлайн

Морда Сигала уже стала нопоминать морды российских чиновников - скоро в камеру не влезет

SANJOK | 16-05-2016, 20:42 | Статус: Оффлайн

Цитата: STARBIT
есть реклама

релиз от кошеры! значит есть

STARBIT | 16-05-2016, 20:16 | Статус: Оффлайн

есть реклама
Информация
Посетители, находящиеся в группе Гости, не могут оставлять комментарии к данной публикации.