Панель пользователя
Регистрация

Воспользуйтесь социальными сетями для входа на https://freerutor.com

vk odnoklassniki facebook mailru yandex google
Рекомендуем
Document
Счетчик
Голосуй за нас
Популярное
загрузка...
Товары интернет магазина

Ценный груз (2016) BDRip 720p | iTunes

Ценный груз (2016) BDRip 720p | iTunes
Участники торрент обмена
Сидов Пиров Скачали
97 2 6401
Характеристика
Размер Файлы
4.20 GB
Поделиться раздачей
Фильмы (720,1080,Blu-Ray)
Наименование: Ценный груз
Оригинальное наименование: Precious Cargo
Произведено: Канада
Категория: боевик, триллер, драма, криминал
Режиссер постановщик: Макс Адамс
В главных ролях: Марк-Пол Госселаар, Брюс Уиллис, Клэр Форлани, Джон Бразертон, Дженна Б. Келли, Николас М. Лоб, Лидия Халл, Дэниэл Бернхард, Эшли Кирк, Тайлер Джон Олсон
Краткое описание: Бос преступной группировки пробует убежать от ответственности за ограблением, которое совершил другой вор.
  • Видео данные:MPEG-4 AVC, 4800 Кбит/с, 1280x536
    Аудио данные: Русский (AC3, 6 ch, 384 Кбит/с), английский (DTS, 6 ch, 1510 Кбит/с)
    Перевод: Дублированный (iTunes)
    Субтитры: Английские
    Продолжительность: 01:29:56
    Релиз без рекламы.
  • Ценный груз (2016) BDRip 720p | iTunes Ценный груз (2016) BDRip 720p | iTunes Ценный груз (2016) BDRip 720p | iTunes
  • Общее
    Уникальный идентификатор : 195308438167247665615411231130264301409 (0x92EF097547570DC892466E225DD86F61)
    Полное имя : D:\загрузки\Precious.Cargo.2016.D.BDRip.720p.mkv
    Формат : Matroska
    Версия формата : Version 2
    Размер файла : 4,20 Гбайт
    Продолжительность : 1 ч. 29 м.
    Общий поток : 6692 Кбит/сек
    Дата кодирования : UTC 2017-04-19 20:18:09
    Программа кодирования : mkvmerge v7.8.0 ('River Man') 32bit built on Apr 3 2015 12:11:22
    Библиотека кодирования : libebml v1.3.1 + libmatroska v1.4.2

    Видео
    Идентификатор : 1
    Формат : AVC
    Формат/Информация : Advanced Video Codec
    Профиль формата : High@L4.1
    Параметр CABAC формата : Да
    Параметр ReFrames формата : 12 кадров
    Идентификатор кодека : V_MPEG4/ISO/AVC
    Продолжительность : 1 ч. 29 м.
    Битрейт : 4800 Кбит/сек
    Ширина : 1280 пикселей
    Высота : 536 пикселей
    Соотношение сторон : 2,40:1
    Режим частоты кадров : Постоянный
    Частота кадров : 23,976 (24000/1001) кадра/сек
    Цветовое пространство : YUV
    Субдискретизация насыщенности : 4:2:0
    Битовая глубина : 8 бит
    Тип развёртки : Прогрессивная
    Бит/(Пиксели*Кадры) : 0.292
    Размер потока : 2,93 Гбайт (70%)
    Библиотека кодирования : x264 core 142 r2431+42 c69a006 tMod [8-bit@all X86_64]
    Настройки программы : cabac=1 / ref=12 / deblock=1:-3:-3 / analyse=0x3:0x133 / me=umh / subme=11 / psy=1 / fade_compensate=0.00 / psy_rd=1.05:1.00 / mixed_ref=1 / me_range=32 / chroma_me=1 / trellis=2 / 8x8dct=1 / cqm=0 / deadzone=21,11 / fast_pskip=0 / chroma_qp_offset=-4 / threads=12 / lookahead_threads=2 / sliced_threads=0 / nr=0 / decimate=0 / interlaced=0 / bluray_compat=0 / constrained_intra=0 / fgo=0 / bframes=8 / b_pyramid=2 / b_adapt=2 / b_bias=0 / direct=3 / weightb=1 / open_gop=0 / weightp=2 / keyint=240 / keyint_min=23 / scenecut=40 / intra_refresh=0 / rc_lookahead=60 / rc=2pass / mbtree=0 / bitrate=4800 / ratetol=1.0 / qcomp=0.60 / qpmin=0:0:0 / qpmax=69:69:69 / qpstep=4 / cplxblur=20.0 / qblur=0.5 / vbv_maxrate=40000 / vbv_bufsize=30000 / nal_hrd=none / filler=0 / ip_ratio=1.40 / pb_ratio=1.30 / aq=1:1.00 / aq-sensitivity=10.00 / aq-factor=1.00:1.00:1.00 / aq2=0 / aq3=0
    Язык : English
    Default : Да
    Forced : Нет

    Аудио #1
    Идентификатор : 2
    Формат : AC-3
    Формат/Информация : Audio Coding 3
    Расширение режима : CM (complete main)
    Параметр Endianness формата : Big
    Идентификатор кодека : A_AC3
    Продолжительность : 1 ч. 29 м.
    Вид битрейта : Постоянный
    Битрейт : 384 Кбит/сек
    Каналы : 6 каналов
    Расположение каналов : Front: L C R, Side: L R, LFE
    Частота : 48,0 КГц
    Частота кадров : 31,250 кадров/сек (1536 spf)
    Битовая глубина : 16 бит
    Метод сжатия : С потерями
    Размер потока : 247 Мбайт (6%)
    Заголовок : iTunes
    Язык : Russian
    Default : Да
    Forced : Нет

    Аудио #2
    Идентификатор : 3
    Формат : DTS
    Формат/Информация : Digital Theater Systems
    Режим : 16
    Параметр Endianness формата : Big
    Идентификатор кодека : A_DTS
    Продолжительность : 1 ч. 29 м.
    Вид битрейта : Постоянный
    Битрейт : 1509 Кбит/сек
    Каналы : 6 каналов
    Расположение каналов : Front: L C R, Side: L R, LFE
    Частота : 48,0 КГц
    Частота кадров : 93,750 кадра/сек (512 spf)
    Битовая глубина : 24 бит
    Метод сжатия : С потерями
    Размер потока : 971 Мбайт (23%)
    Язык : English
    Default : Нет
    Forced : Нет

    Текст #1
    Идентификатор : 4
    Формат : UTF-8
    Идентификатор кодека : S_TEXT/UTF8
    Идентификатор кодека/Информация : UTF-8 Plain Text
    Язык : English
    Default : Нет
    Forced : Нет

    Текст #2
    Идентификатор : 5
    Формат : UTF-8
    Идентификатор кодека : S_TEXT/UTF8
    Идентификатор кодека/Информация : UTF-8 Plain Text
    Язык : English
    Default : Нет
    Forced : Нет

    Меню
    00:00:00.000 : en:00:00:00.000
    00:08:58.621 : en:00:08:58.621
    00:12:51.938 : en:00:12:51.938
    00:16:55.848 : en:00:16:55.848
    00:25:43.208 : en:00:25:43.208
    00:32:43.128 : en:00:32:43.128
    00:36:33.900 : en:00:36:33.900
    00:42:13.197 : en:00:42:13.197
    00:46:02.551 : en:00:46:02.551
    00:52:34.360 : en:00:52:34.360
    00:58:47.107 : en:00:58:47.107
    01:02:41.466 : en:01:02:41.466
    01:06:36.576 : en:01:06:36.576
    01:08:36.696 : en:01:08:36.696
    01:12:46.904 : en:01:12:46.904
    01:21:35.057 : en:01:21:35.057

9.2 из 10
голосов: 13
/10
/10
foster720p 19-04-2017, 23:23
Информация
Посетители, находящиеся в группе Гости, не могут оставлять комментарии к данной публикации.

{adblock}