Панель пользователя
Регистрация

Воспользуйтесь социальными сетями для входа на https://freerutor.com

vk odnoklassniki facebook mailru yandex google
Рекомендуем
Document
Счетчик
Голосуй за нас
Товары интернет магазина
Document

Жертва (2016) BDRip 720p

Жертва  (2016) BDRip 720p
Участники торрент обмена
Сидов Пиров Скачали
1 0 693
Характеристика
Размер Файлы
3.75 GB
Поделиться раздачей
Фильмы (720,1080,Blu-Ray)
Наименование: Жертва
Оригинальное наименование: Sacrifice
Произведено: Ирландия
Категория: триллер
Режиссер постановщик: Питер Э. Даулинг
В главных ролях: Рада Митчелл, Руперт Грейвз, Йен МакЭлхинни, Дэвид Робб, Лайам Карни, Питер Фоллебрегт, Деклан Конлон, Леса Турман, Конор Маллен, Джоэнн Кроуфорд
Краткое описание: Консультирующий хирург Тора Гамильтон вместе с мужем Дунканом переезжает на удаленные Шетландские острова, в 100 милях от северо-восточного побережья Шотландии. На территории своего нового дома Тора находит изрезанное руническими знаками тело молодой женщины, вместо сердца у которой - дыра. Не обращая внимания на предупреждения оставить все как есть, Тора все ближе подбирается к страшнейшей легенде, которую никто и никогда не осмелился бы записать.
  • Видео данные: MPEG-4 AVC, 4800 kb/s, 1280x536
    Аудио данные: Russian: AC3, 448 kb/s (6 ch) / English: AC3, 640 kb/s (6 ch)
    Перевод: Профессиональный двухголосый [2D]
    Субтитры: Английские
    Продолжительность: 01:31:06
    Реклама отсутствует!
  • Жертва  (2016) BDRip 720p Жертва  (2016) BDRip 720p Жертва  (2016) BDRip 720p
  • Общее
    Уникальный идентификатор : 219762976143530158471631728462576763688 (0xA554CF44B6E1AF1D8A4EBFDDD8204328)
    Полное имя : D:\загрузки\Sacrifice.2016.DVO.BDRip.720p.mkv
    Формат : Matroska
    Версия формата : Version 4 / Version 2
    Размер файла : 3,75 Гбайт
    Продолжительность : 1 ч. 31 м.
    Общий поток : 5890 Кбит/сек
    Название фильма : Nuestros amantes 2016 720p BluRay DD5.1 x264-CREATiVE
    Дата кодирования : UTC 2016-12-13 16:20:55
    Программа кодирования : mkvmerge v8.3.0 ('Over the Horizon') 64bit
    Библиотека кодирования : libebml v1.3.1 + libmatroska v1.4.2
    DURATION : 01:31:06.080000000
    NUMBER_OF_FRAMES : 170815
    NUMBER_OF_BYTES : 306100480
    _STATISTICS_WRITING_APP : mkvmerge v8.3.0 ('Over the Horizon') 64bit
    _STATISTICS_WRITING_DATE_UTC : 2016-12-13 16:20:55
    _STATISTICS_TAGS : BPS DURATION NUMBER_OF_FRAMES NUMBER_OF_BYTES

    Видео
    Идентификатор : 1
    Формат : AVC
    Формат/Информация : Advanced Video Codec
    Профиль формата : High@L4.1
    Параметр CABAC формата : Да
    Параметр ReFrames формата : 12 кадров
    Идентификатор кодека : V_MPEG4/ISO/AVC
    Продолжительность : 1 ч. 31 м.
    Битрейт : 4800 Кбит/сек
    Ширина : 1280 пикселей
    Высота : 536 пикселей
    Соотношение сторон : 2,40:1
    Режим частоты кадров : Постоянный
    Частота кадров : 23,976 кадра/сек
    Цветовое пространство : YUV
    Субдискретизация насыщенности : 4:2:0
    Битовая глубина : 8 бит
    Тип развёртки : Прогрессивная
    Бит/(Пиксели*Кадры) : 0.292
    Размер потока : 2,98 Гбайт (80%)
    Библиотека кодирования : x264 core 148 r2705 3f5ed56
    Настройки программы : cabac=1 / ref=12 / deblock=1:-3:-3 / analyse=0x3:0x133 / me=umh / subme=11 / psy=1 / psy_rd=1.00:0.00 / mixed_ref=1 / me_range=48 / chroma_me=1 / trellis=2 / 8x8dct=1 / cqm=0 / deadzone=21,11 / fast_pskip=0 / chroma_qp_offset=-2 / threads=17 / lookahead_threads=2 / sliced_threads=0 / slices=4 / nr=0 / decimate=0 / interlaced=0 / bluray_compat=0 / constrained_intra=0 / bframes=8 / b_pyramid=2 / b_adapt=2 / b_bias=0 / direct=3 / weightb=1 / open_gop=0 / weightp=2 / keyint=250 / keyint_min=23 / scenecut=40 / intra_refresh=0 / rc_lookahead=40 / rc=2pass / mbtree=0 / bitrate=4800 / ratetol=1.0 / qcomp=0.65 / qpmin=0 / qpmax=51 / qpstep=4 / cplxblur=20.0 / qblur=0.5 / vbv_maxrate=62500 / vbv_bufsize=78125 / nal_hrd=none / filler=0 / ip_ratio=1.40 / pb_ratio=1.30 / aq=3:0.75
    Язык : English
    Default : Да
    Forced : Нет
    DURATION : 01:31:05.544000000
    NUMBER_OF_FRAMES : 131042
    NUMBER_OF_BYTES : 3279766877
    _STATISTICS_WRITING_APP : mkvmerge v8.3.0 ('Over the Horizon') 64bit
    _STATISTICS_WRITING_DATE_UTC : 2016-12-13 16:20:55
    _STATISTICS_TAGS : BPS DURATION NUMBER_OF_FRAMES NUMBER_OF_BYTES

    Аудио #1
    Идентификатор : 2
    Формат : AC-3
    Формат/Информация : Audio Coding 3
    Расширение режима : CM (complete main)
    Параметр Endianness формата : Big
    Идентификатор кодека : A_AC3
    Продолжительность : 1 ч. 31 м.
    Вид битрейта : Постоянный
    Битрейт : 448 Кбит/сек
    Каналы : 6 каналов
    Расположение каналов : Front: L C R, Side: L R, LFE
    Частота : 48,0 КГц
    Битовая глубина : 16 бит
    Метод сжатия : С потерями
    Размер потока : 292 Мбайт (8%)
    Язык : Russian
    Default : Да
    Forced : Нет

    Аудио #2
    Идентификатор : 3
    Формат : AC-3
    Формат/Информация : Audio Coding 3
    Расширение режима : CM (complete main)
    Параметр Endianness формата : Big
    Идентификатор кодека : A_AC3
    Продолжительность : 1 ч. 31 м.
    Вид битрейта : Постоянный
    Битрейт : 640 Кбит/сек
    Каналы : 6 каналов
    Расположение каналов : Front: L C R, Side: L R, LFE
    Частота : 48,0 КГц
    Битовая глубина : 16 бит
    Метод сжатия : С потерями
    Размер потока : 417 Мбайт (11%)
    Заголовок : English AC3 5.1 @ 640 Kbps
    Язык : English
    Default : Нет
    Forced : Нет

    Текст #1
    Идентификатор : 4
    Формат : UTF-8
    Идентификатор кодека : S_TEXT/UTF8
    Идентификатор кодека/Информация : UTF-8 Plain Text
    Заголовок : English
    Язык : English
    Default : Нет
    Forced : Нет

    Текст #2
    Идентификатор : 5
    Формат : UTF-8
    Идентификатор кодека : S_TEXT/UTF8
    Идентификатор кодека/Информация : UTF-8 Plain Text
    Заголовок : English SDH
    Язык : English
    Default : Нет
    Forced : Нет

    Меню
    00:00:00.000 : en:1
    00:07:37.916 : en:2
    00:14:10.725 : en:3
    00:21:43.427 : en:4
    00:29:14.920 : en:5
    00:36:17.884 : en:6
    00:44:29.125 : en:7
    00:51:45.477 : en:8
    00:58:39.725 : en:9
    01:05:38.518 : en:10
    01:12:28.970 : en:11
    01:20:16.478 : en:12
5.1 из 10
голосов: 8
5.276 812 5.3 2489
foster720p 13-12-2016, 21:35

Станислав Егоров | 2-05-2016, 07:08 | Статус: Оффлайн

так даже и нечего, ожидал худшего.
Информация
Посетители, находящиеся в группе Гости, не могут оставлять комментарии к данной публикации.