Панель пользователя
Регистрация

Воспользуйтесь социальными сетями для входа на https://freerutor.com

vk odnoklassniki facebook mailru yandex google
Рекомендуем
Document
Счетчик
Голосуй за нас
Товары интернет магазина
Document

Три девятки (2016) BDRip 720p | Лицензия

Три девятки  (2016) BDRip 720p | Лицензия
Участники торрент обмена
Сидов Пиров Скачали
0 0 203
Характеристика
Размер Файлы
10.19 GB
Поделиться раздачей
Фильмы (720,1080,Blu-Ray)
Наименование: Три девятки
Оригинальное наименование: Triple 9
Категория: Криминал, драма, триллер
Произведено: США, Anonymous Content, MadRiver Pictures, Worldview Entertainment
Режиссер постановщик: Джон Хиллкоут
В главных ролях: Аарон Пол, Кейт Уинслет, Вуди Харрельсон, Кейси Аффлек, Энтони Маки, Чиветел Эджиофор, Галь Гадот, Норман Ридус, Тереза Палмер, Майкл Кеннет Уильямс, Клифтон Коллинз мл., Мишель Энг, Терренс Розмор, Терри Эбни, Александр Бабара, Энтони Белевцов, Луис Да Силва мл., Йен Касселберри, Э. Роджер Митчелл, Блейк МакЛеннан
Краткое описание: Группа коррумпированных копов задумывает крупное ограбление. Они понимают: ради алиби им будет нужно убрать кого-то из своих…
  • Видео данные: MPEG-4 AVC, 10.4 Мбит/с, 1280x536
    Аудио данные: Русский (AС3, 6 ch, 448 Кбит/с), английский (DTS, 6 ch, 1509 Кбит/с)
    Перевод: Дублированный (Лицензия)
    Продолжительность: 01:50:35
    Субтитры: Русские, английские
  • Три девятки  (2016) BDRip 720p | Лицензия Три девятки  (2016) BDRip 720p | Лицензия Три девятки  (2016) BDRip 720p | Лицензия
  • x264 [info]: frame I:1084 Avg QP:15.74 size:142186
    x264 [info]: frame P:31674 Avg QP:16.44 size: 83023
    x264 [info]: frame B:133779 Avg QP:18.64 size: 48285

    Общее
    Уникальный идентификатор : 223596063586909040311829972520248627294 (0xA837091200192574876704D4BB3D505E)
    Полное имя : D:загрузкиTriple.9.2016.D.BDRip.720p.mkv
    Формат : Matroska
    Версия формата : Version 2
    Размер файла : 10,2 Гбайт
    Продолжительность : 1 ч. 55 м.
    Общий поток : 12,6 Мбит/сек
    Дата кодирования : UTC 2016-12-21 15:48:45
    Программа кодирования : mkvmerge v7.8.0 ('River Man') 32bit built on Apr 3 2015 12:11:22
    Библиотека кодирования : libebml v1.3.1 + libmatroska v1.4.2

    Видео
    Идентификатор : 1
    Формат : AVC
    Формат/Информация : Advanced Video Codec
    Профиль формата : High@L4.1
    Параметр CABAC формата : Да
    Параметр ReFrames формата : 9 кадров
    Идентификатор кодека : V_MPEG4/ISO/AVC
    Продолжительность : 1 ч. 55 м.
    Битрейт : 10,4 Мбит/сек
    Ширина : 1280 пикселей
    Высота : 536 пикселей
    Соотношение сторон : 2,40:1
    Режим частоты кадров : Постоянный
    Частота кадров : 23,976 кадра/сек
    Цветовое пространство : YUV
    Субдискретизация насыщенности : 4:2:0
    Битовая глубина : 8 бит
    Тип развёртки : Прогрессивная
    Бит/(Пиксели*Кадры) : 0.632
    Размер потока : 8,41 Гбайт (82%)
    Библиотека кодирования : x264 core 142 r2431+42 c69a006 tMod [8-bit@4:2:0 X86_64]
    Настройки программы : cabac=1 / ref=9 / deblock=1:-3:-3 / analyse=0x3:0x113 / me=umh / subme=10 / psy=1 / fade_compensate=0.00 / psy_rd=1.00:0.05 / mixed_ref=1 / me_range=32 / chroma_me=1 / trellis=2 / 8x8dct=1 / cqm=0 / deadzone=21,11 / fast_pskip=0 / chroma_qp_offset=-2 / threads=12 / lookahead_threads=2 / sliced_threads=0 / nr=0 / decimate=1 / interlaced=0 / bluray_compat=0 / constrained_intra=0 / fgo=0 / bframes=8 / b_pyramid=2 / b_adapt=2 / b_bias=0 / direct=3 / weightb=1 / open_gop=0 / weightp=2 / keyint=250 / keyint_min=23 / scenecut=40 / intra_refresh=0 / rc_lookahead=40 / rc=crf / mbtree=0 / crf=18.0000 / qcomp=0.60 / qpmin=0:0:0 / qpmax=69:69:69 / qpstep=4 / vbv_maxrate=30000 / vbv_bufsize=30000 / crf_max=0.0 / nal_hrd=none / filler=0 / ip_ratio=1.40 / pb_ratio=1.30 / aq=3:1.00 / aq-sensitivity=10.00 / aq-factor=1.00:1.00:1.00 / aq2=0 / aq3=0
    Язык : English
    Default : Да
    Forced : Нет
    Коэффициенты матрицы : BT.709

    Аудио #1
    Идентификатор : 2
    Формат : AC-3
    Формат/Информация : Audio Coding 3
    Расширение режима : CM (complete main)
    Параметр Endianness формата : Big
    Идентификатор кодека : A_AC3
    Продолжительность : 1 ч. 55 м.
    Вид битрейта : Постоянный
    Битрейт : 448 Кбит/сек
    Каналы : 6 каналов
    Расположение каналов : Front: L C R, Side: L R, LFE
    Частота : 48,0 КГц
    Битовая глубина : 16 бит
    Метод сжатия : С потерями
    Размер потока : 371 Мбайт (4%)
    Заголовок : Dub (R5)
    Язык : Russian
    Default : Да
    Forced : Нет

    Аудио #2
    Идентификатор : 3
    Формат : DTS
    Формат/Информация : Digital Theater Systems
    Режим : 16
    Параметр Endianness формата : Big
    Идентификатор кодека : A_DTS
    Продолжительность : 1 ч. 55 м.
    Вид битрейта : Постоянный
    Битрейт : 1509 Кбит/сек
    Каналы : 6 каналов
    Расположение каналов : Front: L C R, Side: L R, LFE
    Частота : 48,0 КГц
    Битовая глубина : 24 бит
    Метод сжатия : С потерями
    Размер потока : 1,22 Гбайт (12%)
    Заголовок : Original
    Язык : English
    Default : Нет
    Forced : Нет

    Текст #1
    Идентификатор : 4
    Формат : UTF-8
    Идентификатор кодека : S_TEXT/UTF8
    Идентификатор кодека/Информация : UTF-8 Plain Text
    Заголовок : Full
    Язык : Russian
    Default : Нет
    Forced : Нет

    Текст #2
    Идентификатор : 5
    Формат : UTF-8
    Идентификатор кодека : S_TEXT/UTF8
    Идентификатор кодека/Информация : UTF-8 Plain Text
    Заголовок : Full
    Язык : English
    Default : Нет
    Forced : Нет

    Меню
    00:00:00.000 : en:00:00:00
    00:05:34.459 : en:00:05:34
    00:12:18.029 : en:00:12:18
    00:15:57.039 : en:00:15:57
    00:20:25.724 : en:00:20:25
    00:28:39.468 : en:00:28:39
    00:34:28.942 : en:00:34:28
    00:39:29.576 : en:00:39:29
    00:44:32.879 : en:00:44:32
    00:48:10.888 : en:00:48:10
    00:56:32.639 : en:00:56:32
    01:02:03.178 : en:01:02:03
    01:07:03.019 : en:01:07:03
    01:12:12.620 : en:01:12:12
    01:16:22.495 : en:01:16:22
    01:21:41.647 : en:01:21:41
    01:26:30.102 : en:01:26:30
    01:32:35.675 : en:01:32:35
    01:41:34.255 : en:01:41:34
    01:50:13.315 : en:01:50:13
9.0 из 10
голосов: 15
6.089 19770 6.3 45447
bond74 21-12-2016, 19:00

616759 | 2-04-2016, 18:10 | Статус: Оффлайн

Нормалёк киношка, посмотреть можно, если сравнивать со всем дерьмом которое сейчас в основном снимают, очень даже не плохо.

AVP74 | 2-04-2016, 15:28 | Статус: Оффлайн

Спасибо! goodgood respekt

valuct | 2-04-2016, 13:21 | Статус: Оффлайн

Спасибо!!!!!!!!!!!!
Информация
Посетители, находящиеся в группе Гости, не могут оставлять комментарии к данной публикации.