Панель пользователя
Регистрация

Воспользуйтесь социальными сетями для входа на https://freerutor.com

vk odnoklassniki facebook mailru yandex google
Рекомендуем
Document
Счетчик
Голосуй за нас
Товары интернет магазина

Экспириенс (2015) HDTV 1080i

Экспириенс (2015) HDTV 1080i
Участники торрент обмена
Сидов Пиров Скачали
0 0 1258
Характеристика
Размер Файлы
2.63 GB
Релиз группа
Поделиться раздачей
Фильмы (720,1080,Blu-Ray)
Наименование: Экспириенс
Категория: Драма
Произведено: Россия / А.Т.К.-Студио
Режиссер постановщик: Евгений Татаров
В главных ролях: Кирилл Жандаров, Галина Сумина, Юрий Елагин, Ирина Ларионова, Владимир Меньшов, Евгений Леонов-Гладышев, Александр Тютрюмов, Ирина Яковлева
Краткое описание: Молодой учёный на пороге сенсационного открытия. Его программа по коррекции памяти обещает навсегда избавить людей от негативных воспоминаний. Успех проекта приносит его создателю славу, деньги и. … осознание оборотной стороны вмешательства в жизненный опыт человека.
  • Видео данные: MPEG-4 AVC, 3657 Кбит/с, 1920x1080
    Аудио данные: АC3, 6 ch, 448 Кбит/с
    Перевод: Оригинал (русский)
    Продолжительность: 01:29:59
  • Экспириенс (2015) HDTV 1080i Экспириенс (2015) HDTV 1080i Экспириенс (2015) HDTV 1080i
  • Общее
    Уникальный идентификатор : 244149458345541605984138820655479538950 (0xB7AD79AB83D30537951E413B7ED84506)
    Полное имя : E:\Экспириенс_2015_HDTV_1080i.mkv
    Формат : Matroska
    Версия формата : Version 2
    Размер файла : 2,63 Гбайт
    Продолжительность : 1 ч. 29 м.
    Общий поток : 4188 Кбит/сек
    Дата кодирования : UTC 2016-02-15 16:09:45
    Программа кодирования : mkvmerge v5.6.0 ('Kenya Kane') built on May 27 2012 16:44:04
    Библиотека кодирования : libebml v1.2.3 + libmatroska v1.3.0

    Видео
    Идентификатор : 1
    Формат : AVC
    Формат/Информация : Advanced Video Codec
    Профиль формата : Main@L4
    Параметр CABAC формата : Да
    Параметр ReFrames формата : 3 кадра
    Идентификатор кодека : V_MPEG4/ISO/AVC
    Продолжительность : 1 ч. 29 м.
    Битрейт : 3657 Кбит/сек
    Ширина : 1920 пикселей
    Высота : 1080 пикселей
    Соотношение сторон : 16:9
    Режим частоты кадров : Постоянный
    Частота кадров : 25,000 кадров/сек
    Стандарт вещания : Component
    Цветовое пространство : YUV
    Субдискретизация насыщенности : 4:2:0
    Битовая глубина : 8 бит
    Тип развёртки : Чересстрочная
    Метод сохранения типа развёртки : Раздельные поля
    Порядок развёртки : Верхнее поле первое
    Бит/(Пиксели*Кадры) : 0.071
    Размер потока : 2,30 Гбайт (87%)
    Default : Да
    Forced : Нет
    Цветовой диапазон : Limited
    Основные цвета : BT.709
    Характеристики трансфера : BT.709
    Коэффициенты матрицы : BT.709

    Аудио
    Идентификатор : 2
    Формат : AC-3
    Формат/Информация : Audio Coding 3
    Расширение режима : CM (complete main)
    Параметр Endianness формата : Big
    Идентификатор кодека : A_AC3
    Продолжительность : 1 ч. 29 м.
    Вид битрейта : Постоянный
    Битрейт : 448 Кбит/сек
    Каналы : 6 каналов
    Расположение каналов : Front: L C R, Side: L R, LFE
    Частота : 48,0 КГц
    Частота кадров : 31,250 кадров/сек (1536 spf)
    Метод сжатия : С потерями
    Задержка видео : 53 мс.
    Размер потока : 288 Мбайт (11%)
    Язык : Russian
    Default : Да
    Forced : Нет
3.6 из 10
голосов: 7
grab777 16-02-2016, 20:44
Информация
Посетители, находящиеся в группе Гости, не могут оставлять комментарии к данной публикации.