Панель пользователя
Регистрация

Воспользуйтесь социальными сетями для входа на https://freerutor.com

vk odnoklassniki facebook mailru yandex google
Рекомендуем
Document
Счетчик
Голосуй за нас
Товары интернет магазина
Document

Шеф Адам Джонс (2015) BDRip 1080p | Лицензия

Шеф Адам Джонс (2015) BDRip 1080p | Лицензия
Участники торрент обмена
Сидов Пиров Скачали
1 0 271
Характеристика
Размер Файлы
9.45 GB
Релиз группа
Поделиться раздачей
Фильмы (720,1080,Blu-Ray)
Наименование: Шеф Адам Джонс
Оригинальное наименование: Burnt
Произведено: США
Категория: драма, комедия
Режиссер постановщик: Джон Уэллс
В главных ролях: Брэдли Купер, Сиенна Миллер, Омар Си, Даниэль Брюль, Риккардо Скамарчио, Ума Турман, Эмма Томпсон, Сэм Кили, Мэттью Риз
Краткое описание: В центре сюжета - история некогда знаменитого шеф-повара, который из-за своего пагубного пристрастия теряет собственный ресторан в Париже, пониженный в рейтинге до унизительных двух звезд. Решив не сдаваться, он вновь собирает свою команду, перестраивает лондонский ресторан и надеется получить три звезды.
  • Видео данные: MPEG-4 AVC, 11.3 Mбит/с, 1920x800
    Аудио данные: Русский (AC3, 6 ch, 640 Кбит/с), английский (DTS, 6 ch, 1510 Кбит/c)
    Перевод: Дублированный [Лицензия]
    Субтитры: Английские
    Продолжительность: 01:41:00
  • Шеф Адам Джонс (2015) BDRip 1080p | Лицензия Шеф Адам Джонс (2015) BDRip 1080p | Лицензия Шеф Адам Джонс (2015) BDRip 1080p | Лицензия
  • General
    Unique ID : 245418582306674292452737869490586163623 (0xB8A1E64FF1AA7B1993A5D0EA9A0C99A7)
    Complete name : G:VideoBurnt.2015.BDRip.1080p.ExKinoRay.mkv
    Format : Matroska
    Format version : Version 4 / Version 2
    File size : 9.45 GiB
    Duration : 1 h 40 min
    Overall bit rate : 13.4 Mb/s
    Encoded date : UTC 2017-02-24 17:36:23
    Writing application : mkvmerge v8.3.0 ('Over the Horizon') 64bit
    Writing library : libebml v1.3.1 + libmatroska v1.4.2
    Cover : Yes
    Attachments : cover.jpg

    Video
    ID : 1
    Format : AVC
    Format/Info : Advanced Video Codec
    Format profile : High@L4.1
    Format settings, CABAC : Yes
    Format settings, ReFrames : 5 frames
    Codec ID : V_MPEG4/ISO/AVC
    Duration : 1 h 40 min
    Bit rate : 11.3 Mb/s
    Width : 1 920 pixels
    Height : 800 pixels
    Display aspect ratio : 2.40:1
    Frame rate mode : Constant
    Frame rate : 23.976 (24000/1001) FPS
    Color space : YUV
    Chroma subsampling : 4:2:0
    Bit depth : 8 bits
    Scan type : Progressive
    Bits/(Pixel*Frame) : 0.306
    Stream size : 7.93 GiB (84%)
    Writing library : x264 core 129 r2245 bc13772
    Encoding settings : cabac=1 / ref=5 / deblock=1:-3:-3 / analyse=0x3:0x133 / me=umh / subme=11 / psy=1 / psy_rd=1.05:0.05 / mixed_ref=1 / me_range=64 / chroma_me=1 / trellis=2 / 8x8dct=1 / cqm=0 / deadzone=21,11 / fast_pskip=0 / chroma_qp_offset=-3 / threads=12 / lookahead_threads=2 / sliced_threads=0 / nr=0 / decimate=1 / interlaced=0 / bluray_compat=0 / constrained_intra=0 / bframes=8 / b_pyramid=2 / b_adapt=2 / b_bias=0 / direct=3 / weightb=1 / open_gop=0 / weightp=2 / keyint=250 / keyint_min=23 / scenecut=40 / intra_refresh=0 / rc_lookahead=60 / rc=2pass / mbtree=1 / bitrate=11252 / ratetol=1.0 / qcomp=0.60 / qpmin=0 / qpmax=69 / qpstep=4 / cplxblur=20.0 / qblur=0.5 / vbv_maxrate=40000 / vbv_bufsize=30000 / nal_hrd=none / ip_ratio=1.40 / aq=1:0.80
    Language : English
    Default : Yes
    Forced : No

    Audio #1
    ID : 2
    Format : AC-3
    Format/Info : Audio Coding 3
    Mode extension : CM (complete main)
    Format settings, Endianness : Big
    Codec ID : A_AC3
    Duration : 1 h 40 min
    Bit rate mode : Constant
    Bit rate : 640 kb/s
    Channel(s) : 6 channels
    Channel positions : Front: L C R, Side: L R, LFE
    Sampling rate : 48.0 kHz
    Frame rate : 31.250 FPS (1536 spf)
    Bit depth : 16 bits
    Compression mode : Lossy
    Stream size : 462 MiB (5%)
    Title : Dub [license]
    Language : Russian
    Default : Yes
    Forced : No

    Audio #2
    ID : 3
    Format : DTS
    Format/Info : Digital Theater Systems
    Mode : 16
    Format settings, Endianness : Big
    Codec ID : A_DTS
    Duration : 1 h 40 min
    Bit rate mode : Constant
    Bit rate : 1 509 kb/s
    Channel(s) : 6 channels
    Channel positions : Front: L C R, Side: L R, LFE
    Sampling rate : 48.0 kHz
    Frame rate : 93.750 FPS (512 spf)
    Bit depth : 24 bits
    Compression mode : Lossy
    Stream size : 1.06 GiB (11%)
    Title : Original
    Language : English
    Default : No
    Forced : No

    Text #1
    ID : 4
    Format : UTF-8
    Codec ID : S_TEXT/UTF8
    Codec ID/Info : UTF-8 Plain Text
    Duration : 1 h 35 min
    Bit rate : 57 b/s
    Count of elements : 1184
    Stream size : 40.1 KiB (0%)
    Title : Full
    Language : English
    Default : No
    Forced : No

    Text #2
    ID : 5
    Format : UTF-8
    Codec ID : S_TEXT/UTF8
    Codec ID/Info : UTF-8 Plain Text
    Duration : 1 h 36 min
    Bit rate : 63 b/s
    Count of elements : 1329
    Stream size : 44.6 KiB (0%)
    Title : SDH
    Language : English
    Default : No
    Forced : No

    Text #3
    ID : 6
    Format : UTF-8
    Codec ID : S_TEXT/UTF8
    Codec ID/Info : UTF-8 Plain Text
    Duration : 1 h 36 min
    Bit rate : 76 b/s
    Count of elements : 1329
    Stream size : 54.0 KiB (0%)
    Title : SDH [Colored]
    Language : English
    Default : No
    Forced : No

    Menu
    00:00:00.000 : en:Chapter 01
    00:04:21.386 : en:Chapter 02
    00:10:20.328 : en:Chapter 03
    00:17:42.394 : en:Chapter 04
    00:23:23.360 : en:Chapter 05
    00:31:49.949 : en:Chapter 06
    00:37:52.687 : en:Chapter 07
    00:44:25.245 : en:Chapter 08
    00:50:55.177 : en:Chapter 09
    00:55:28.658 : en:Chapter 10
    01:01:41.239 : en:Chapter 11
    01:10:27.348 : en:Chapter 12
    01:16:13.735 : en:Chapter 13
    01:23:25.125 : en:Chapter 14
    01:30:54.365 : en:Chapter 15
    01:36:11.682 : en:Chapter 16
    01:40:59.303 : en:Chapter 17
8.7 из 10
голосов: 9
Раздачу отредактировал: VlaDyka - 25-02-2017, 05:32
По причине: (Замена iTunes на Лицензию)
Strelok777 25-02-2017, 05:31

tetrix | 25-12-2015, 13:00 | Статус: Оффлайн

Вот спасибо так спасиба
Информация
Посетители, находящиеся в группе Гости, не могут оставлять комментарии к данной публикации.