Панель пользователя
Регистрация

Воспользуйтесь социальными сетями для входа на https://freerutor.com

vk odnoklassniki facebook mailru yandex google
Рекомендуем
Document
Счетчик
Голосуй за нас
Популярное
загрузка...
Товары интернет магазина

Преступная деятельность (2015) BDRip 720p | iTunes

Преступная деятельность (2015) BDRip 720p | iTunes
Участники торрент обмена
Сидов Пиров Скачали
5 1 814
Характеристика
Размер Файлы
4.21 GB
Поделиться раздачей
Фильмы (720,1080,Blu-Ray)
Наименование: Преступная деятельность
Оригинальное наименование: Criminal Activities
Произведено: США
Категория: триллер, драма, криминал
Режиссер постановщик: Джеки Эрл Хейли
В главных ролях: Дэн Стивенс, Джон Траволта, Джеки Эрл Хейли, Майкл Питт, Эди Гатеги, Кристофер Эбботт, Роб Браун, Лиза Катара, Трэвис Аарон, Морган Волк
Краткое описание: Четверо молодых людей инвестировали деньги в рискованное дело, которое приводит их к конфликту с мафией.
  • Видео данные: MPEG-4 AVC, 5153 kb/s, 1280x534
    Аудио данные: Russian: AC3, 384 kb/s (6 ch) / English: AC3, 640 kb/s (6 ch)
    Перевод: Профессиональный многоголосый [iTunes]
    Субтитры: Английские
    Продолжительность: 01:33:53
  • Преступная деятельность (2015) BDRip 720p | iTunes Преступная деятельность (2015) BDRip 720p | iTunes Преступная деятельность (2015) BDRip 720p | iTunes
  • Общее
    Уникальный идентификатор : 208358192382333518980397015704227343727 (0x9CC054040C0C3992847C6A73D448ED6F)
    Полное имя : D:\загрузки\Prestupnaja.dejatelnost.2015.P.2015.BDRip.720p.mkv
    Формат : Matroska
    Версия формата : Version 2
    Размер файла : 4,21 Гбайт
    Продолжительность : 1 ч. 33 м.
    Общий поток : 6421 Кбит/сек
    Дата кодирования : UTC 2017-02-27 19:33:22
    Программа кодирования : mkvmerge v7.8.0 ('River Man') 32bit built on Apr 3 2015 12:11:22
    Библиотека кодирования : libebml v1.3.1 + libmatroska v1.4.2

    Видео
    Идентификатор : 1
    Формат : AVC
    Формат/Информация : Advanced Video Codec
    Профиль формата : High@L4.1
    Параметр CABAC формата : Да
    Параметр ReFrames формата : 12 кадров
    Идентификатор кодека : V_MPEG4/ISO/AVC
    Продолжительность : 1 ч. 33 м.
    Битрейт : 5269 Кбит/сек
    Ширина : 1280 пикселей
    Высота : 534 пикселя
    Соотношение сторон : 2,40:1
    Режим частоты кадров : Постоянный
    Частота кадров : 23,976 (24000/1001) кадра/сек
    Цветовое пространство : YUV
    Субдискретизация насыщенности : 4:2:0
    Битовая глубина : 8 бит
    Тип развёртки : Прогрессивная
    Бит/(Пиксели*Кадры) : 0.322
    Размер потока : 3,46 Гбайт (82%)
    Библиотека кодирования : x264 core 148 r2638+53 bb29004 t_mod_Custom [8-bit@all X86_64]
    Настройки программы : cabac=1 / ref=12 / deblock=1:-3:-3 / analyse=0x3:0x133 / me=umh / subme=11 / psy=1 / fade_compensate=0.00 / psy_rd=1.05:0.00 / mixed_ref=1 / me_range=48 / chroma_me=1 / trellis=2 / 8x8dct=1 / cqm=0 / deadzone=21,11 / fast_pskip=0 / chroma_qp_offset=-2 / threads=8 / lookahead_threads=1 / sliced_threads=0 / nr=0 / decimate=0 / interlaced=0 / bluray_compat=0 / constrained_intra=0 / fgo=0 / bframes=8 / b_pyramid=2 / b_adapt=2 / b_bias=0 / direct=3 / weightb=1 / open_gop=0 / weightp=2 / keyint=250 / keyint_min=23 / scenecut=40 / intra_refresh=0 / rc_lookahead=150 / rc=crf / mbtree=0 / crf=15.6000 / qcomp=0.60 / qpmin=0:0:0 / qpmax=69:69:69 / qpstep=4 / vbv_maxrate=50000 / vbv_bufsize=62500 / crf_max=0.0 / nal_hrd=none / filler=0 / ip_ratio=1.40 / pb_ratio=1.30 / aq=3:0.80 / aq-sensitivity=10.00 / aq-factor=1.00:1.00:1.00 / aq2=0 / aq3=0 / zones=71,167,crf=13.5
    Язык : English
    Default : Да
    Forced : Нет

    Аудио #1
    Идентификатор : 2
    Формат : AC-3
    Формат/Информация : Audio Coding 3
    Расширение режима : CM (complete main)
    Параметр Endianness формата : Big
    Идентификатор кодека : A_AC3
    Продолжительность : 1 ч. 33 м.
    Вид битрейта : Постоянный
    Битрейт : 384 Кбит/сек
    Каналы : 6 каналов
    Расположение каналов : Front: L C R, Side: L R, LFE
    Частота : 48,0 КГц
    Частота кадров : 31,250 кадров/сек (1536 spf)
    Битовая глубина : 16 бит
    Метод сжатия : С потерями
    Размер потока : 258 Мбайт (6%)
    Заголовок : iTunes
    Язык : Russian
    Default : Да
    Forced : Нет

    Аудио #2
    Идентификатор : 3
    Формат : AC-3
    Формат/Информация : Audio Coding 3
    Расширение режима : CM (complete main)
    Параметр Endianness формата : Big
    Идентификатор кодека : A_AC3
    Продолжительность : 1 ч. 33 м.
    Вид битрейта : Постоянный
    Битрейт : 640 Кбит/сек
    Каналы : 6 каналов
    Расположение каналов : Front: L C R, Side: L R, LFE
    Частота : 48,0 КГц
    Частота кадров : 31,250 кадров/сек (1536 spf)
    Битовая глубина : 16 бит
    Метод сжатия : С потерями
    Размер потока : 430 Мбайт (10%)
    Язык : English
    Default : Нет
    Forced : Нет

    Текст #1
    Идентификатор : 4
    Формат : UTF-8
    Идентификатор кодека : S_TEXT/UTF8
    Идентификатор кодека/Информация : UTF-8 Plain Text
    Язык : English
    Default : Нет
    Forced : Нет

    Текст #2
    Идентификатор : 5
    Формат : UTF-8
    Идентификатор кодека : S_TEXT/UTF8
    Идентификатор кодека/Информация : UTF-8 Plain Text
    Заголовок : SDH
    Язык : English
    Default : Нет
    Forced : Нет

    Меню
    00:00:00.000 : en:Insider Training
    00:10:20.078 : en:"Rules of Economics"
    00:20:28.310 : en:Occupational Hazards
    00:31:59.793 : en:Agressive Negotiations
    00:39:06.177 : en:Best Served Cold
    00:49:21.876 : en:Divide and Conquer
    00:59:23.018 : en:"Evils of Humanity"
    01:12:07.698 : en:Insured Mortality
    01:20:02.381 : en:Poodles!
    01:29:45.297 : en:Credits
6.9 из 10
голосов: 14
/10
/10
Strelok777 27-02-2017, 22:36

tugarin57 | 10-05-2017, 22:43 | Статус: Оффлайн

одноразовый фильмец mda
Информация
Посетители, находящиеся в группе Гости, не могут оставлять комментарии к данной публикации.