Панель пользователя
Регистрация

Воспользуйтесь социальными сетями для входа на https://freerutor.com

vk odnoklassniki facebook mailru yandex google
Рекомендуем
Document
Счетчик
Голосуй за нас
Товары интернет магазина

Акулье озеро (2015) BDRip 720p

Акулье озеро  (2015) BDRip  720p
Участники торрент обмена
Сидов Пиров Скачали
1 0 1113
Характеристика
Размер Файлы
3.95 GB
Поделиться раздачей
Фильмы (720,1080,Blu-Ray)
Наименование: Акулье озеро
Оригинальное наименование: Shark Lake
Произведено: США
Категория: триллер
Режиссер постановщик: Джерри Дуган
В главных ролях: Дольф Лундгрен, Сара Малакул Лэйн, Джеймс Чалк, Майкл Аарон Миллиган, Ибрахим Ренно мл., Майлз Долеак, Лэнс Э. Николс, Эли Бардха, Патрик Кернс
Краткое описание: Клинт был одним из лучших контрабандистов экзотических видов животных в округе озера Тахо, работал на влиятельного преступного авторитета и старался в одиночку воспитывать маленькую дочь. Однажды копы вышли на него и устроили ночную облаву, но Клинту удалось вырваться на фургоне с ценным грузом. В результате полицейской погони мужчина слетает с дороги в озеро и его арестовывают, а контрабанда исчезает в водной пучине. Задержавшая Клинта женщина-полицейский Мередит Хендрикс - лучший коп департамента шерифа, удочеряет оставшегося без надзора ребёнка и вместе с матерью пытается дать ей лучшую жизнь.
  • Видео данные: MPEG-4 AVC, 5284 Кбит/с, 1280x720
    Аудио данные: Русский (AC3, 2 ch, 192 Кбит/с), английский (AC3, 6 ch, 640 Кбит/с)
    Перевод: Профессиональный многоголосый [Официальный звук]
    Продолжительность: 01:32:33
  • Акулье озеро  (2015) BDRip  720p Акулье озеро  (2015) BDRip  720p Акулье озеро  (2015) BDRip  720p
  • Общее
    Уникальный идентификатор : 190576345955347497546932924045873980786 (0x8F5FAB4C8B760FA9ABA220293FA52572)
    Полное имя : D:\загрузки\Shark.Lake.2015.P.720p.mkv
    Формат : Matroska
    Версия формата : Version 2
    Размер файла : 3,95 Гбайт
    Продолжительность : 1 ч. 32 м.
    Общий поток : 6115 Кбит/сек
    Дата кодирования : UTC 2017-01-12 22:32:05
    Программа кодирования : mkvmerge v7.8.0 ('River Man') 32bit built on Apr 3 2015 12:11:22
    Библиотека кодирования : libebml v1.3.1 + libmatroska v1.4.2

    Видео
    Идентификатор : 1
    Формат : AVC
    Формат/Информация : Advanced Video Codec
    Профиль формата : High@L5.1
    Параметр CABAC формата : Да
    Параметр ReFrames формата : 7 кадров
    Идентификатор кодека : V_MPEG4/ISO/AVC
    Продолжительность : 1 ч. 32 м.
    Битрейт : 5284 Кбит/сек
    Ширина : 1280 пикселей
    Высота : 720 пикселей
    Соотношение сторон : 16:9
    Режим частоты кадров : Постоянный
    Частота кадров : 23,976 кадра/сек
    Цветовое пространство : YUV
    Субдискретизация насыщенности : 4:2:0
    Битовая глубина : 8 бит
    Тип развёртки : Прогрессивная
    Бит/(Пиксели*Кадры) : 0.239
    Размер потока : 3,34 Гбайт (84%)
    Библиотека кодирования : x264 core 148 r2597 e86f3a1
    Настройки программы : cabac=1 / ref=7 / deblock=1:-3:-3 / analyse=0x3:0x133 / me=umh / subme=10 / psy=1 / psy_rd=1.00:0.00 / mixed_ref=1 / me_range=32 / chroma_me=1 / trellis=2 / 8x8dct=1 / cqm=0 / deadzone=21,11 / fast_pskip=1 / chroma_qp_offset=-2 / threads=6 / lookahead_threads=1 / sliced_threads=0 / nr=0 / decimate=1 / interlaced=0 / bluray_compat=0 / constrained_intra=0 / bframes=8 / b_pyramid=2 / b_adapt=2 / b_bias=0 / direct=3 / weightb=1 / open_gop=0 / weightp=2 / keyint=250 / keyint_min=23 / scenecut=40 / intra_refresh=0 / rc_lookahead=50 / rc=2pass / mbtree=1 / bitrate=5284 / ratetol=1.0 / qcomp=0.60 / qpmin=0 / qpmax=69 / qpstep=4 / cplxblur=20.0 / qblur=0.5 / ip_ratio=1.40 / aq=3:0.90
    Default : Да
    Forced : Нет
    Цветовой диапазон : Limited
    Основные цвета : BT.709
    Характеристики трансфера : BT.709
    Коэффициенты матрицы : BT.709

    Аудио #1
    Идентификатор : 2
    Формат : AC-3
    Формат/Информация : Audio Coding 3
    Расширение режима : CM (complete main)
    Параметр Endianness формата : Big
    Идентификатор кодека : A_AC3
    Продолжительность : 1 ч. 32 м.
    Вид битрейта : Постоянный
    Битрейт : 192 Кбит/сек
    Каналы : 2 канала
    Расположение каналов : Front: L R
    Частота : 48,0 КГц
    Частота кадров : 31,250 кадров/сек (1536 spf)
    Битовая глубина : 16 бит
    Метод сжатия : С потерями
    Размер потока : 127 Мбайт (3%)
    Язык : Russian
    Default : Да
    Forced : Нет

    Аудио #2
    Идентификатор : 3
    Формат : AC-3
    Формат/Информация : Audio Coding 3
    Расширение режима : CM (complete main)
    Параметр Endianness формата : Big
    Идентификатор кодека : A_AC3
    Продолжительность : 1 ч. 32 м.
    Вид битрейта : Постоянный
    Битрейт : 640 Кбит/сек
    Каналы : 6 каналов
    Расположение каналов : Front: L C R, Side: L R, LFE
    Частота : 48,0 КГц
    Частота кадров : 31,250 кадров/сек (1536 spf)
    Битовая глубина : 16 бит
    Метод сжатия : С потерями
    Размер потока : 424 Мбайт (10%)
    Язык : English
    Default : Нет
    Forced : Нет

    Текст
    Идентификатор : 4
    Формат : UTF-8
    Идентификатор кодека : S_TEXT/UTF8
    Идентификатор кодека/Информация : UTF-8 Plain Text
    Язык : English
    Default : Нет
    Forced : Нет

    Меню
    00:00:00.000 : en:Chapter 01
    00:06:08.493 : en:Chapter 02
    00:11:28.979 : en:Chapter 03
    00:18:51.630 : en:Chapter 04
    00:25:00.499 : en:Chapter 05
    00:32:54.430 : en:Chapter 06
    00:43:53.297 : en:Chapter 07
    00:50:50.881 : en:Chapter 08
    00:57:53.011 : en:Chapter 09
    01:06:36.200 : en:Chapter 10
    01:16:29.293 : en:Chapter 11
    01:25:19.489 : en:Chapter 12
7.5 из 10
голосов: 6
karta 13-01-2017, 01:48

Станислав Егоров | 13-01-2017, 07:28 | Статус: Онлайн

трэшак и Лундгрен

scarry | 13-01-2017, 06:48 | Статус: Оффлайн

Маразм крепчал! Смотрите продолжение - кильки убийцы из пруда! laugh1

Vereshagin1972 | 18-11-2015, 23:55 | Статус: Оффлайн

Как в первых пираньях, только запутили в озеро теперь акул!
Информация
Посетители, находящиеся в группе Гости, не могут оставлять комментарии к данной публикации.