Панель пользователя
Регистрация

Воспользуйтесь социальными сетями для входа на https://freerutor.com

vk odnoklassniki facebook mailru yandex google
Рекомендуем
Document
Счетчик
Голосуй за нас
Товары интернет магазина

Шёпот (2015) HDTV 1080i

Шёпот (2015) HDTV 1080i
Участники торрент обмена
Сидов Пиров Скачали
0 0 549
Характеристика
Размер Файлы
5.46 GB
Поделиться раздачей
Фильмы (720,1080,Blu-Ray)
Оригинальное название: Шёпот
Жанр: Мелодрама
Выпущено: Россия / Продюсерский центр Фабула
Режиссер: Глеб Якубовский
В ролях: Ольга Иванова, Алексей Демидов, Святослав Астрамович, Марина Денисова, Елизавета Шукова, Ирина Нарбекова, Вера Кавалерова, Дмитрий Гурбанович, Олег Ткачёв, Светлана Кожемякина, Алла Долгая
Краткое описание: Стася Рокотова молода, привлекательна, учится в аспирантуре и собирается замуж. Но несмотря на все это, она чувствует себя очень одинокой. С женихом Игорем на первый взгляд все складывается нормально, но Стасю не покидает ощущение, что он ее не слышит или не хочет слышать. Мать вспоминает о своей младшей дочери, только когда ей что-то нужно. А со старшей сестрой Ликой, занимающейся живописью, они близки никогда не были…
  • Видео: MPEG-TS, 7866 Кбит/с, 1920x1080
    Аудио: MP2, 2 ch, 192 Кбит/с
    Перевод: Оригинал
    Продолжительность: 01:32:11
  • Шёпот (2015) HDTV 1080i Шёпот (2015) HDTV 1080i Шёпот (2015) HDTV 1080i
  • General
    ID : 1 (0x1)
    Complete name : Shepot.2015.HDTV.1080i.ts
    Format : MPEG-TS
    File size : 5.46 GiB
    Duration : 1h 32mn
    Overall bit rate mode : Variable
    Overall bit rate : 8 479 Kbps

    Video
    ID : 2911 (0xB5F)
    Menu ID : 1009 (0x3F1)
    Format : AVC
    Format/Info : Advanced Video Codec
    Format profile : High@L4
    Format settings, CABAC : Yes
    Format settings, ReFrames : 4 frames
    Codec ID : 27
    Duration : 1h 32mn
    Bit rate : 7 866 Kbps
    Width : 1 920 pixels
    Height : 1 080 pixels
    Display aspect ratio : 16:9
    Frame rate : 25.000 fps
    Color space : YUV
    Chroma subsampling : 4:2:0
    Bit depth : 8 bits
    Scan type : MBAFF
    Scan order : Top Field First
    Bits/(Pixel*Frame) : 0.152
    Stream size : 5.07 GiB (93%)

    Audio
    ID : 2912 (0xB60)
    Menu ID : 1009 (0x3F1)
    Format : MPEG Audio
    Format version : Version 1
    Format profile : Layer 2
    Codec ID : 3
    Duration : 1h 32mn
    Bit rate mode : Constant
    Bit rate : 192 Kbps
    Channel(s) : 2 channels
    Sampling rate : 48.0 KHz
    Compression mode : Lossy
    Stream size : 127 MiB (2%)
    Language : Russian
10.0 из 10
голосов: 7
grab777 8-11-2015, 20:26
Информация
Посетители, находящиеся в группе Гости, не могут оставлять комментарии к данной публикации.