Панель пользователя
Регистрация

Воспользуйтесь социальными сетями для входа на https://freerutor.com

vk odnoklassniki facebook mailru yandex google
Рекомендуем
Document
Счетчик
Голосуй за нас
Популярное
загрузка...
Товары интернет магазина

Цирк! Цирк! Цирк! (2011) BDRip 720p

Цирк! Цирк! Цирк!  (2011) BDRip 720p
Участники торрент обмена
Сидов Пиров Скачали
2 1 370
Характеристика
Размер Файлы
3.02 GB
Релиз группа
Поделиться раздачей
Мультфильмы
Наименование: Цирк! Цирк! Цирк!
Оригинальное наименование: Orla Frosnapper
Категория: Мультфильм, комедия, семейный
Произведено: Дания / Crone Film Produktion A/S
Режиссер постановщик: Питер Додд
В главных ролях: Николай Ли Каас, Туре Линдхардт, Николай Коперникус, Катрин Фалькенберг, Маргете Койту, Оле Теструп, Дэвид Бэйтсон, Cecilie Stenspil, Ларс Тиесгаард, Лассе Лундерсков.
Краткое описание: В маленький город, в котором живет Виктор и его пес Хрящик, приезжает цирк. Директор цирка предлагает всем желающим выступить со своей программой, и все жители города начинают готовиться. Готовятся и Виктор с Хрящиком. Местный хулиган Фредди, по прозвищу Лягушка, обеспокоен происходящим: раньше в центре внимания города был он и его проказы, а теперь никто не обращает на него никакого внимания! Фредди решает похитить Хрящика и сам выступить на арене. Виктору и его друзьям, Якобу и Клэр, предстоят настоящие приключения!
  • Видео данные: MPEG-4 AVC, 4015 Кбит/с, 1280x688
    Аудио данные: Русский (АС3, 6 ch, 448 Кбит/с), датский (АС3, 6 ch, 640 Кбит/с)
    Перевод: Дублированное [Лицензия]
    Субтитры: Английские
    Продолжительность: 01:24:35
  • Цирк! Цирк! Цирк!  (2011) BDRip 720p Цирк! Цирк! Цирк!  (2011) BDRip 720p Цирк! Цирк! Цирк!  (2011) BDRip 720p
  • Общее
    Уникальный идентификатор : 234043764337837941589369593727418366106 (0xB013307CC0053DF9A6A5B6B6B22FF89A)
    Полное имя : E:\Раздача-BDRip\Cyrk_Cyrk_Cyrk_2011_BDRip 720p_FreeRutor.mkv
    Формат : Matroska
    Версия формата : Version 2
    Размер файла : 3,02 Гбайт
    Продолжительность : 1 ч. 24 м.
    Общий поток : 5104 Кбит/сек
    Название фильма : Orla Frosnapper (2011) BDRip 720p_FreeRutor_grab777
    Дата кодирования : UTC 2017-01-22 21:27:05
    Программа кодирования : mkvmerge v5.8.0 ('No Sleep / Pillow') built on Sep 2 2012 15:37:04
    Библиотека кодирования : libebml v1.2.3 + libmatroska v1.3.0

    Видео
    Идентификатор : 1
    Формат : AVC
    Формат/Информация : Advanced Video Codec
    Профиль формата : High@L4.1
    Параметр CABAC формата : Да
    Параметр ReFrames формата : 9 кадров
    Идентификатор кодека : V_MPEG4/ISO/AVC
    Продолжительность : 1 ч. 24 м.
    Битрейт : 4015 Кбит/сек
    Ширина : 1280 пикселей
    Высота : 688 пикселей
    Соотношение сторон : 1,85:1
    Режим частоты кадров : Постоянный
    Частота кадров : 23,976 кадра/сек
    Цветовое пространство : YUV
    Субдискретизация насыщенности : 4:2:0
    Битовая глубина : 8 бит
    Тип развёртки : Прогрессивная
    Бит/(Пиксели*Кадры) : 0.190
    Размер потока : 2,31 Гбайт (77%)
    Заголовок : Video_ DHT
    Библиотека кодирования : x264 core 119 r2106 07efeb4
    Настройки программы : cabac=1 / ref=9 / deblock=1:-1:-1 / analyse=0x3:0x133 / me=umh / subme=10 / psy=1 / psy_rd=1.00:0.05 / mixed_ref=1 / me_range=32 / chroma_me=1 / trellis=2 / 8x8dct=1 / cqm=0 / deadzone=21,11 / fast_pskip=0 / chroma_qp_offset=-5 / threads=6 / sliced_threads=0 / nr=0 / decimate=1 / interlaced=0 / bluray_compat=0 / constrained_intra=0 / bframes=8 / b_pyramid=2 / b_adapt=2 / b_bias=0 / direct=3 / weightb=1 / open_gop=0 / weightp=2 / keyint=240 / keyint_min=24 / scenecut=40 / intra_refresh=0 / rc_lookahead=60 / rc=2pass / mbtree=1 / bitrate=4015 / ratetol=1.0 / qcomp=0.60 / qpmin=0 / qpmax=69 / qpstep=4 / cplxblur=20.0 / qblur=0.5 / ip_ratio=1.40 / aq=2:0.90
    Язык : English
    Default : Да
    Forced : Нет

    Аудио #1
    Идентификатор : 2
    Формат : AC-3
    Формат/Информация : Audio Coding 3
    Расширение режима : CM (complete main)
    Параметр Endianness формата : Big
    Идентификатор кодека : A_AC3
    Продолжительность : 1 ч. 24 м.
    Вид битрейта : Постоянный
    Битрейт : 448 Кбит/сек
    Каналы : 6 каналов
    Расположение каналов : Front: L C R, Side: L R, LFE
    Частота : 48,0 КГц
    Битовая глубина : 16 бит
    Метод сжатия : С потерями
    Размер потока : 271 Мбайт (9%)
    Заголовок : Dub (Лицензия)
    Язык : Russian
    Default : Да
    Forced : Нет

    Аудио #2
    Идентификатор : 3
    Формат : AC-3
    Формат/Информация : Audio Coding 3
    Расширение режима : CM (complete main)
    Параметр Endianness формата : Big
    Идентификатор кодека : A_AC3
    Продолжительность : 1 ч. 24 м.
    Вид битрейта : Постоянный
    Битрейт : 640 Кбит/сек
    Каналы : 6 каналов
    Расположение каналов : Front: L C R, Side: L R, LFE
    Частота : 48,0 КГц
    Битовая глубина : 16 бит
    Метод сжатия : С потерями
    Размер потока : 387 Мбайт (13%)
    Заголовок : Original
    Язык : Danish
    Default : Нет
    Forced : Нет

    Текст
    Идентификатор : 4
    Формат : UTF-8
    Идентификатор кодека : S_TEXT/UTF8
    Идентификатор кодека/Информация : UTF-8 Plain Text
    Язык : English
    Default : Нет
    Forced : Нет

    Меню
    00:00:00.000 : :00:00:00.000
    00:07:20.857 : :00:07:20.857
    00:15:30.346 : :00:15:30.346
    00:21:45.304 : :00:21:45.304
    00:30:07.889 : :00:30:07.889
    00:36:11.628 : :00:36:11.628
    00:42:25.168 : :00:42:25.168
    00:48:00.586 : :00:48:00.586
    00:55:15.771 : :00:55:15.771
    01:02:40.674 : :01:02:40.674
    01:11:32.538 : :01:11:32.538
    01:21:45.609 : :01:21:45.609
7.8 из 10
голосов: 4
/10
/10
Dass653 28-01-2017, 10:40
Информация
Посетители, находящиеся в группе Гости, не могут оставлять комментарии к данной публикации.